×

¿Problemas para descargar con Mozilla, EDGE? Deshabilita la opción "Abrir vinculos en una pestaña nueva" tal como lo muestra ésta imagen.

No estás invitada a mi bat mitzvah (2023) NF WEB-DL 1080p Latino

114 vistas

Información de No estás invitada a mi bat mitzvah (2023) NF WEB-DL 1080p Latino

Datos de la película

  • Calidad: WEBDL
  • Audio: Español Latino E-AC3 5.1 Netflix - Ingles E-AC3 5.1 Netflix
  • Subtitulos: Español Latino SRT- FORZADOS SRT
  • Resolución: 1920x1080p
  • Formato: MKV
  • Codec: H.264
  • Encoder: Melkor
  • Mediainfo: Clic para Mostrar Datos Ver
  • No estás invitada a mi bat mitzvah (2023) NF WebDL 1080p Latino.mkv
    Format                      : Matroska
    Format version              : Version 4
    File size                   : 5.94 GiB
    Duration                    : 1 h 43 min
    Overall bit rate mode       : Variable
    Overall bit rate            : 8 210 kb/s
    Movie name                  : You Are So Not Invited to My Bat Mitzvah (2023) CinemaniaHDD.Net
    Encoded date                : UTC 2023-09-04 06:16:48
    Writing application         : mkvmerge v56.1.0 ('My Friend') 64-bit
    Writing library             : libebml v1.4.2 + libmatroska v1.6.4
    Attachments                 : CINEMANIAHD.png
    Site                        : CinemaniaHDD.Net
    Uploader                    : Melkor

    Video
    ID                          : 1
    Format                      : AVC
    Format/Info                 : Advanced Video Codec
    Format profile              : High@L4
    Format settings             : CABAC / 4 Ref Frames
    Format settings, CABAC      : Yes
    Format settings, Reference  : 4 frames
    Codec ID                    : V_MPEG4/ISO/AVC
    Duration                    : 1 h 43 min
    Bit rate mode               : Variable
    Bit rate                    : 6 238 kb/s
    Maximum bit rate            : 20.0 Mb/s
    Width                       : 1 920 pixels
    Height                      : 1 080 pixels
    Display aspect ratio        : 16:9
    Frame rate mode             : Constant
    Frame rate                  : 24.000 FPS
    Color space                 : YUV
    Chroma subsampling          : 4:2:0
    Bit depth                   : 8 bits
    Scan type                   : Progressive
    Bits/(Pixel*Frame)          : 0.125
    Stream size                 : 4.51 GiB (76%)
    Title                       : Web HD1080p [CinemaniaHDD]
    Writing library             : x264 core 148 r2727 7d026e8
    Encoding settings           : cabac=1 / ref=4 / deblock=1:0:0 / analyse=0x3:0x111 / me=umh / subme=10 / psy=1 / psy_rd=1.00:0.00 / mixed_ref=1 / me_range=120 / chroma_me=1 / trellis=2 / 8x8dct=1 / cqm=0 / deadzone=21,11 / fast_pskip=1 / chroma_qp_offset=-2 / threads=6 / lookahead_threads=1 / sliced_threads=0 / nr=0 / decimate=1 / interlaced=0 / bluray_compat=0 / stitchable=1 / constrained_intra=0 / bframes=16 / b_pyramid=2 / b_adapt=2 / b_bias=0 / direct=3 / weightb=1 / open_gop=0 / weightp=2 / keyint=240 / keyint_min=121 / scenecut=0 / intra_refresh=0 / rc_lookahead=240 / rc=crf / mbtree=1 / crf=21.0 / qcomp=0.50 / qpmin=6 / qpmax=51 / qpstep=4 / vbv_maxrate=20000 / vbv_bufsize=25000 / crf_max=0.0 / nal_hrd=vbr / filler=0 / ip_ratio=1.40 / aq=1:0.80
    Default                     : Yes
    Forced                      : Yes

    Audio #1
    ID                          : 2
    Format                      : AC-3
    Format/Info                 : Audio Coding 3
    Commercial name             : Dolby Digital
    Codec ID                    : A_AC3
    Duration                    : 1 h 43 min
    Bit rate mode               : Constant
    Bit rate                    : 448 kb/s
    Channel(s)                  : 6 channels
    Channel layout              : L R C LFE Ls Rs
    Sampling rate               : 48.0 kHz
    Frame rate                  : 31.250 FPS (1536 SPF)
    Compression mode            : Lossy
    Stream size                 : 332 MiB (5%)
    Title                       : Español Latino AC3 [CinemaniaHDD]
    Language                    : Spanish
    Service kind                : Complete Main
    Default                     : Yes
    Forced                      : Yes

    Audio #2
    ID                          : 3
    Format                      : E-AC-3 JOC
    Format/Info                 : Enhanced AC-3 with Joint Object Coding
    Commercial name             : Dolby Digital Plus with Dolby Atmos
    Codec ID                    : A_EAC3
    Duration                    : 1 h 43 min
    Bit rate mode               : Constant
    Bit rate                    : 768 kb/s
    Channel(s)                  : 6 channels
    Channel layout              : L R C LFE Ls Rs
    Sampling rate               : 48.0 kHz
    Frame rate                  : 31.250 FPS (1536 SPF)
    Compression mode            : Lossy
    Stream size                 : 569 MiB (9%)
    Title                       : Español Latino EAC3 [CinemaniaHDD]
    Language                    : Spanish
    Service kind                : Complete Main
    Default                     : No
    Forced                      : No
    Complexity index            : 16
    Number of dynamic objects   : 15
    Bed channel count           : 1 channel
    Bed channel configuration   : LFE

    Audio #3
    ID                          : 4
    Format                      : E-AC-3 JOC
    Format/Info                 : Enhanced AC-3 with Joint Object Coding
    Commercial name             : Dolby Digital Plus with Dolby Atmos
    Codec ID                    : A_EAC3
    Duration                    : 1 h 41 min
    Bit rate mode               : Constant
    Bit rate                    : 768 kb/s
    Channel(s)                  : 6 channels
    Channel layout              : L R C LFE Ls Rs
    Sampling rate               : 48.0 kHz
    Frame rate                  : 31.250 FPS (1536 SPF)
    Compression mode            : Lossy
    Stream size                 : 557 MiB (9%)
    Title                       : Ingles [CinemaniaHDD]
    Language                    : English
    Service kind                : Complete Main
    Default                     : No
    Forced                      : No
    Complexity index            : 16
    Number of dynamic objects   : 15
    Bed channel count           : 1 channel
    Bed channel configuration   : LFE

    Text #1
    ID                          : 5
    Format                      : UTF-8
    Codec ID                    : S_TEXT/UTF8
    Codec ID/Info               : UTF-8 Plain Text
    Duration                    : 1 h 40 min
    Bit rate                    : 1 b/s
    Count of elements           : 36
    Stream size                 : 991 Bytes (0%)
    Title                       : Forzados-SRT [CinemaniaHDD]
    Language                    : Spanish
    Default                     : Yes
    Forced                      : Yes

    Text #2
    ID                          : 6
    Format                      : UTF-8
    Codec ID                    : S_TEXT/UTF8
    Codec ID/Info               : UTF-8 Plain Text
    Duration                    : 1 h 40 min
    Bit rate                    : 65 b/s
    Count of elements           : 1597
    Stream size                 : 48.5 KiB (0%)
    Title                       : Español-SRT [CinemaniaHDD]
    Language                    : Spanish
    Default                     : No
    Forced                      : No

    Text #3
    ID                          : 7
    Format                      : UTF-8
    Codec ID                    : S_TEXT/UTF8
    Codec ID/Info               : UTF-8 Plain Text
    Duration                    : 1 h 40 min
    Bit rate                    : 95 b/s
    Count of elements           : 2029
    Stream size                 : 70.9 KiB (0%)
    Title                       : Ingles-SRT [CinemaniaHDD]
    Language                    : English
    Default                     : No
    Forced                      : No

  • Peso: 5.94 GiB

Sinopsis

Descargar No estás invitada a mi bat mitzvah (2023) NF WEB-DL 1080p Latino. Sigue a Stacey Friedman mientras se prepara para su bat mitzvah, pero sus planes se desmoronan cómicamente y amenazan con arruinar el evento.

Ficha técnica

  • Titulo original: You Are So Not Invited to My Bat Mitzvah
  • Fecha de lanzamiento: 18-08-2023 (United States of America)
  • Director: Sammi Cohen
  • Género: Comedia, Netflix

Video trailer de la película

Enlaces de descarga

Rip de Bluray

Descargar No estás invitada a mi bat mitzvah (2023) NF WEB-DL 1080p Latino




Aportes de DPeliculasHDmega la pass es:dpeliculashdmega.org Aportes de CinemaniaHD la pass es:cinemaniahdd.com Aportes recientes:cinemaniahdd.net
Guardado en : Comedia , Netflix

Películas relacionadas

  • Nada que ver (2023) WEB-DL 1080p Latino

    Nada que ver (2023) WEB-DL 1080p Latino

    2023
    Nada que ver (2023) WEB-DL 1080p Latino

    1h 30m 2023

    Descargar Nada que ver (2023) WEB-DL 1080p Latino. Después de que Carlos tiene la tarea de cuidar a...

    Director: Kenya Marquez

    Género: Comedia

    Actores: Rebecca Jones

  • El Roomie (2024) WEB-DL 1080p Latino

    El Roomie (2024) WEB-DL 1080p Latino

    2024
    El Roomie (2024) WEB-DL 1080p Latino

    1h 39m 2024

    Descargar El Roomie (2024) WEB-DL 1080p Latino. Vivi se ve obligada a buscar un roomie para pagar la...

    Director: Pedro Pablo Ibarra

    Género: Comedia

    Actores: Victoria Ruffo

  • Lisa Frankenstein (2024) HD 1080p Latino

    Lisa Frankenstein (2024) HD 1080p Latino

    2024
    Lisa Frankenstein (2024) HD 1080p Latino

    1h 42m 2024

    Descargar Lisa Frankenstein (2024) HD 1080p Latino. En 1989, una impopular chica de secundaria llamada...

    Director: Zelda Williams

    Género: Comedia

    Actores: Wendy Miklovic

descargar No estás invitada a mi bat mitzvah (2023) NF WEB-DL 1080p Latino WEBDL 1080p gratis, No estás invitada a mi bat mitzvah (2023) NF WEB-DL 1080p Latino WEBDL mega 1 link, No estás invitada a mi bat mitzvah (2023) NF WEB-DL 1080p Latino WEBDL pelicula completa, descargar No estás invitada a mi bat mitzvah (2023) NF WEB-DL 1080p Latino WEBDL gratis en mega.

No estás invitada a mi bat mitzvah (2023) NF WEB-DL 1080p Latino pelicula full hd, No estás invitada a mi bat mitzvah (2023) NF WEB-DL 1080p Latino mega latino, No estás invitada a mi bat mitzvah (2023) NF WEB-DL 1080p Latino 4k latino, No estás invitada a mi bat mitzvah (2023) NF WEB-DL 1080p Latino pelicula completa, No estás invitada a mi bat mitzvah (2023) NF WEB-DL 1080p Latino descargar gratis, descargar No estás invitada a mi bat mitzvah (2023) NF WEB-DL 1080p Latino pelicula latino, No estás invitada a mi bat mitzvah (2023) NF WEB-DL 1080p Latino 1 link mega, No estás invitada a mi bat mitzvah (2023) NF WEB-DL 1080p Latino 1 link google drive, No estás invitada a mi bat mitzvah (2023) NF WEB-DL 1080p Latino hd 1080p latino.
Comentarios 0