×

¿Problemas para descargar con Mozilla, EDGE? Deshabilita la opción "Abrir vinculos en una pestaña nueva" tal como lo muestra ésta imagen.

Next Friday (2000) REMUX 1080p Latino – CMHDD

109 vistas

Información de Next Friday (2000) REMUX 1080p Latino – CMHDD

Datos de la película

  • Calidad: Full 1080p
  • Audio: Español Latino AC3 2.0 BLURAY - Ingles DTS 5.1 BLURAY
  • Subtitulos: Español Latino PGS
  • Resolución: 19201080p
  • Formato: MKV
  • Codec: H.264
  • Encoder: Dracarys
  • Mediainfo: Clic para Mostrar Datos Ver
  • Format                      : Matroska
    Format version              : Version 4
    File size                   : 17.5 GiB
    Duration                    : 1 h 38 min
    Overall bit rate mode       : Variable
    Overall bit rate            : 25.6 Mb/s
    Movie name                  : Next Friday (2000) REMUX 1080p Latino - CMHDD
    Encoded date                : UTC 2023-10-02 00:14:02
    Writing application         : mkvmerge v47.0.0 ('Black Flag') 64-bit
    Writing library             : libebml v1.3.10 + libmatroska v1.5.2
    Cover                       : Yes
    Attachments                 : cover.jpg

    Video
    ID                          : 1
    ID in the original source m : 4113 (0x1011)
    Format                      : AVC
    Format/Info                 : Advanced Video Codec
    Format profile              : High@L4.1
    Format settings             : CABAC / 3 Ref Frames
    Format settings, CABAC      : Yes
    Format settings, Reference  : 3 frames
    Codec ID                    : V_MPEG4/ISO/AVC
    Duration                    : 1 h 38 min
    Bit rate mode               : Variable
    Bit rate                    : 21.0 Mb/s
    Maximum bit rate            : 35.0 Mb/s
    Width                       : 1 920 pixels
    Height                      : 1 080 pixels
    Display aspect ratio        : 16:9
    Frame rate mode             : Constant
    Frame rate                  : 23.976 (24000/1001) FPS
    Color space                 : YUV
    Chroma subsampling          : 4:2:0
    Bit depth                   : 8 bits
    Scan type                   : Progressive
    Bits/(Pixel*Frame)          : 0.422
    Stream size                 : 14.4 GiB (82%)
    Writing library             : x264 core 120 r2164 da19765
    Encoding settings           : cabac=1 / ref=3 / deblock=1:-1:-1 / analyse=0x3:0x133 / me=umh / subme=10 / psy=1 / psy_rd=1.00:0.25 / mixed_ref=1 / me_range=24 / chroma_me=1 / trellis=2 / 8x8dct=1 / cqm=0 / deadzone=6,6 / fast_pskip=0 / chroma_qp_offset=-4 / threads=12 / sliced_threads=0 / slices=4 / nr=0 / decimate=0 / interlaced=0 / bluray_compat=1 / constrained_intra=0 / bframes=2 / b_pyramid=1 / b_adapt=2 / b_bias=0 / direct=3 / weightb=1 / open_gop=1 / weightp=0 / keyint=24 / keyint_min=1 / scenecut=40 / intra_refresh=0 / rc_lookahead=24 / rc=2pass / mbtree=1 / bitrate=21000 / ratetol=1.0 / qcomp=0.80 / qpmin=2 / qpmax=69 / qpstep=4 / cplxblur=20.0 / qblur=0.5 / vbv_maxrate=35000 / vbv_bufsize=30000 / nal_hrd=vbr / ip_ratio=1.10 / aq=1:1.30
    Default                     : Yes
    Forced                      : No
    Color range                 : Limited
    Color primaries             : BT.709
    Transfer characteristics    : BT.709
    Matrix coefficients         : BT.709
    Original source medium      : Blu-ray

    Audio #1
    ID                          : 2
    ID in the original source m : 4352 (0x1100)
    Format                      : DTS XLL
    Format/Info                 : Digital Theater Systems
    Commercial name             : DTS-HD Master Audio
    Codec ID                    : A_DTS
    Duration                    : 1 h 38 min
    Bit rate mode               : Variable
    Bit rate                    : 4 363 kb/s
    Channel(s)                  : 6 channels
    Channel layout              : C L R Ls Rs LFE
    Sampling rate               : 48.0 kHz
    Frame rate                  : 93.750 FPS (512 SPF)
    Bit depth                   : 24 bits
    Compression mode            : Lossless
    Stream size                 : 2.99 GiB (17%)
    Language                    : English
    Default                     : No
    Forced                      : No
    Original source medium      : Blu-ray

    Audio #2
    ID                          : 3
    ID in the original source m : 4353 (0x1101)
    Format                      : AC-3
    Format/Info                 : Audio Coding 3
    Commercial name             : Dolby Digital
    Format settings             : Dolby Surround
    Codec ID                    : A_AC3
    Duration                    : 1 h 38 min
    Bit rate mode               : Constant
    Bit rate                    : 192 kb/s
    Channel(s)                  : 2 channels
    Channel layout              : L R
    Sampling rate               : 48.0 kHz
    Frame rate                  : 31.250 FPS (1536 SPF)
    Compression mode            : Lossy
    Stream size                 : 135 MiB (1%)
    Language                    : Spanish
    Service kind                : Complete Main
    Default                     : Yes
    Forced                      : No
    Original source medium      : Blu-ray

    Text
    ID                          : 4
    ID in the original source m : 4609 (0x1201)
    Format                      : PGS
    Muxing mode                 : zlib
    Codec ID                    : S_HDMV/PGS
    Codec ID/Info               : Picture based subtitle format used on BDs/HD-DVDs
    Duration                    : 1 h 37 min
    Bit rate                    : 37.0 kb/s
    Frame rate                  : 0.495 FPS
    Count of elements           : 2898
    Stream size                 : 25.8 MiB (0%)
    Language                    : Spanish
    Default                     : No
    Forced                      : No
    Original source medium      : Blu-ray

    Menu
    00:00:00.000                : en:Capítulo 01
    00:04:09.415                : en:Capítulo 02
    00:08:05.109                : en:Capítulo 03
    00:13:48.953                : en:Capítulo 04
    00:19:57.070                : en:Capítulo 05
    00:22:57.000                : en:Capítulo 06
    00:25:16.014                : en:Capítulo 07
    00:28:55.692                : en:Capítulo 08
    00:32:32.533                : en:Capítulo 09
    00:37:42.635                : en:Capítulo 10
    00:40:41.689                : en:Capítulo 11
    00:46:37.336                : en:Capítulo 12
    00:50:35.657                : en:Capítulo 13
    00:55:23.278                : en:Capítulo 14
    01:01:00.865                : en:Capítulo 15
    01:07:22.038                : en:Capítulo 16
    01:12:30.220                : en:Capítulo 17
    01:19:31.933                : en:Capítulo 18
    01:28:31.556                : en:Capítulo 19
    01:31:01.664                : en:Capítulo 20

     

  • Peso: 17.5 GiB

Sinopsis

Secuela de «Friday». Tras la inminente venganza por parte de Deebo tras su fuga carcelaria, Craig decide pasar una temporada mientras se calmen las cosas con su tío y su primo, que viven en Rancho Cucamonga tras haber ganado la lotería.

Ficha técnica

  • Titulo original: Next Friday
  • Fecha de lanzamiento: 12-01-2000 (United States of America)
  • Director: Steve Carr
  • Género: Comedia

Video trailer de la película

Enlaces de descarga

Rip de Bluray

Descargar Next Friday (2000) REMUX 1080p Latino – CMHDD




Aportes de DPeliculasHDmega la pass es:dpeliculashdmega.org Aportes de CinemaniaHD la pass es:cinemaniahdd.com Aportes recientes:cinemaniahdd.net
Guardado en : Comedia

Películas relacionadas

  • Nada que ver (2023) WEB-DL 1080p Latino

    Nada que ver (2023) WEB-DL 1080p Latino

    2023
    Nada que ver (2023) WEB-DL 1080p Latino

    1h 30m 2023

    Descargar Nada que ver (2023) WEB-DL 1080p Latino. Después de que Carlos tiene la tarea de cuidar a...

    Director: Kenya Marquez

    Género: Comedia

    Actores: Rebecca Jones

  • El Roomie (2024) WEB-DL 1080p Latino

    El Roomie (2024) WEB-DL 1080p Latino

    2024
    El Roomie (2024) WEB-DL 1080p Latino

    1h 39m 2024

    Descargar El Roomie (2024) WEB-DL 1080p Latino. Vivi se ve obligada a buscar un roomie para pagar la...

    Director: Pedro Pablo Ibarra

    Género: Comedia

    Actores: Victoria Ruffo

  • Lisa Frankenstein (2024) HD 1080p Latino

    Lisa Frankenstein (2024) HD 1080p Latino

    2024
    Lisa Frankenstein (2024) HD 1080p Latino

    1h 42m 2024

    Descargar Lisa Frankenstein (2024) HD 1080p Latino. En 1989, una impopular chica de secundaria llamada...

    Director: Zelda Williams

    Género: Comedia

    Actores: Wendy Miklovic

descargar Next Friday (2000) REMUX 1080p Latino – CMHDD Full 1080p 1080p gratis, Next Friday (2000) REMUX 1080p Latino – CMHDD Full 1080p mega 1 link, Next Friday (2000) REMUX 1080p Latino – CMHDD Full 1080p pelicula completa, descargar Next Friday (2000) REMUX 1080p Latino – CMHDD Full 1080p gratis en mega.

Next Friday (2000) REMUX 1080p Latino – CMHDD pelicula full hd, Next Friday (2000) REMUX 1080p Latino – CMHDD mega latino, Next Friday (2000) REMUX 1080p Latino – CMHDD 4k latino, Next Friday (2000) REMUX 1080p Latino – CMHDD pelicula completa, Next Friday (2000) REMUX 1080p Latino – CMHDD descargar gratis, descargar Next Friday (2000) REMUX 1080p Latino – CMHDD pelicula latino, Next Friday (2000) REMUX 1080p Latino – CMHDD 1 link mega, Next Friday (2000) REMUX 1080p Latino – CMHDD 1 link google drive, Next Friday (2000) REMUX 1080p Latino – CMHDD hd 1080p latino.
Comentarios 0