×

¿Problemas para descargar con Mozilla, EDGE? Deshabilita la opción "Abrir vinculos en una pestaña nueva" tal como lo muestra ésta imagen.

El vidente (2007) REMUX 1080p Latino

29 vistas

Información de El vidente (2007) REMUX 1080p Latino

Datos de la película

  • Calidad: Full 1080p
  • Audio: Español Latino AC3 5.1 DVD - Ingles DTS 5.1 BLURAY
  • Subtitulos: Español Latino PGS - Ingles PGS
  • Resolución: 1920x1080p
  • Formato: MKV
  • Codec: H.264
  • Encoder: CinefiloCool
  • Mediainfo: Clic para Mostrar Datos Ver
  • El Vidente (2007) REMUX 1080p Latino.mkv Format                      : Matroska Format version              : Version 4 File size                   : 24.2 GiB Duration                    : 1 h 36 min Overall bit rate mode       : Variable Overall bit rate            : 36.1 Mb/s Movie name                  : Next (2007) CinemaniaHDD.Net Encoded date                : UTC 2023-01-18 22:49:46 Writing application         : mkvmerge v56.1.0 ('My Friend') 64-bit Writing library             : libebml v1.4.2 + libmatroska v1.6.4 Attachments                 : CINEMANIAHD.png Video ID                          : 1 Format                      : AVC Format/Info                 : Advanced Video Codec Format profile              : High@L4.1 Format settings             : CABAC / 2 Ref Frames Format settings, CABAC      : Yes Format settings, Reference  : 2 frames Format settings, GOP        : M=1, N=10 Codec ID                    : V_MPEG4/ISO/AVC Duration                    : 1 h 36 min Bit rate mode               : Variable Bit rate                    : 31.9 Mb/s Width                       : 1 920 pixels Height                      : 1 080 pixels Display aspect ratio        : 16:9 Frame rate mode             : Constant Frame rate                  : 23.976 (24000/1001) FPS Color space                 : YUV Chroma subsampling          : 4:2:0 Bit depth                   : 8 bits Scan type                   : Progressive Bits/(Pixel*Frame)          : 0.642 Stream size                 : 21.4 GiB (88%) Title                       : REMUX HD1080p [CinemaniaHDD] Language                    : English Default                     : Yes Forced                      : Yes Audio #1 ID                          : 2 Format                      : AC-3 Format/Info                 : Audio Coding 3 Commercial name             : Dolby Digital Codec ID                    : A_AC3 Duration                    : 1 h 36 min Bit rate mode               : Constant Bit rate                    : 448 kb/s Channel(s)                  : 6 channels Channel layout              : L R C LFE Ls Rs Sampling rate               : 48.0 kHz Frame rate                  : 31.250 FPS (1536 SPF) Compression mode            : Lossy Stream size                 : 308 MiB (1%) Title                       : Español Latino [CinemaniaHDD] Language                    : Spanish Service kind                : Complete Main Default                     : Yes Forced                      : Yes Audio #2 ID                          : 3 Format                      : DTS XLL Format/Info                 : Digital Theater Systems Commercial name             : DTS-HD Master Audio Codec ID                    : A_DTS Duration                    : 1 h 36 min Bit rate mode               : Variable Bit rate                    : 3 685 kb/s Channel(s)                  : 6 channels Channel layout              : C L R Ls Rs LFE Sampling rate               : 48.0 kHz Frame rate                  : 93.750 FPS (512 SPF) Bit depth                   : 24 bits Compression mode            : Lossless Stream size                 : 2.48 GiB (10%) Title                       : Ingles [CinemaniaHDD] Language                    : English Default                     : No Forced                      : No Text #1 ID                          : 4 Format                      : PGS Muxing mode                 : zlib Codec ID                    : S_HDMV/PGS Codec ID/Info               : Picture based subtitle format used on BDs/HD-DVDs Duration                    : 1 h 29 min Bit rate                    : 27.6 kb/s Count of elements           : 1866 Stream size                 : 17.6 MiB (0%) Title                       : Español-PGS [CinemaniaHDD] Language                    : Spanish Default                     : No Forced                      : No Text #2 ID                          : 5 Format                      : PGS Muxing mode                 : zlib Codec ID                    : S_HDMV/PGS Codec ID/Info               : Picture based subtitle format used on BDs/HD-DVDs Duration                    : 1 h 26 min Bit rate                    : 33.4 kb/s Count of elements           : 1966 Stream size                 : 20.8 MiB (0%) Title                       : Ingles [CinemaniaHDD] Language                    : English Default                     : No Forced                      : No Text #3 ID                          : 6 Format                      : UTF-8 Codec ID                    : S_TEXT/UTF8 Codec ID/Info               : UTF-8 Plain Text Duration                    : 5 s 756 ms Bit rate                    : 13 b/s Count of elements           : 1 Stream size                 : 10.0 Bytes (0%) Title                       : Forzados-SRT [CinemaniaHDD] Language                    : Spanish Default                     : Yes Forced                      : Yes Text #4 ID                          : 7 Format                      : UTF-8 Codec ID                    : S_TEXT/UTF8 Codec ID/Info               : UTF-8 Plain Text Duration                    : 1 h 26 min Bit rate                    : 45 b/s Count of elements           : 929 Stream size                 : 28.9 KiB (0%) Title                       : Español-SRT [CinemaniaHDD] Language                    : Spanish Default                     : No Forced                      : No Menu 00:00:00.000                : Chapter 01 00:02:28.774                : Chapter 02 00:10:06.314                : Chapter 03 00:11:45.955                : Chapter 04 00:16:14.974                : Chapter 05 00:20:14.422                : Chapter 06 00:21:02.678                : Chapter 07 00:27:54.882                : Chapter 08 00:30:17.524                : Chapter 09 00:36:18.635                : Chapter 10 00:42:12.613                : Chapter 11 00:48:20.773                : Chapter 12 00:56:10.617                : Chapter 13 01:02:01.092                : Chapter 14 01:11:04.927                : Chapter 15 01:19:16.877                : Chapter 16 01:26:07.079                : Chapter 17 01:30:36.681                : Chapter 18
  • Peso: 24.2 GiB

Sinopsis

Descargar El vidente (2007) REMUX 1080p Latino. Cris Johnson es un mago de Las Vegas bendecido con un don que también es una maldición: cuenta con la sobrenatural capacidad de saber qué va a ocurrir a continuación. Johnson puede ver el futuro unos cuantos minutos más allá del momento presente, un talento extrasensorial que, sin duda, le viene muy bien para su trabajo como mago y mentalista en un sórdido club de Las Vegas donde actúa cada noche. Por otra parte, la agente antiterrorista Callie Ferris, quiere sacar partido al talento de Johnson con objeto de impedir el ataque que unos terroristas planean ejecutar contra Los Angeles mediante un arma de destrucción masiva. La cuenta atrás de la bomba prosigue y Johnson sería un elemento clave a la hora de impedir un holocausto nuclear. Si no recurre a sus poderes para canalizar su visión a través de los portales temporales correctos para así poder modificar el presente, su futuro – y el de cientos de miles de personas – podría ser una cosa del pasado…

Ficha técnica

Video trailer de la película

Enlaces de descarga

Rip de Bluray

Descargar El vidente (2007) REMUX 1080p Latino


Aportes de DPeliculasHDmega la pass es:dpeliculashdmega.org Aportes de CinemaniaHD la pass es:cinemaniahdd.com
Guardado en : Acción , Ciencia ficción , Remux , Suspenso

Películas relacionadas

  • Mi amigo el dragón (2016) REMUX 1080p Latino

    Mi amigo el dragón (2016) REMUX 1080p Latino

    2016
    Mi amigo el dragón (2016) REMUX 1080p Latino

    1h 43m 2016

    Descargar Mi amigo el dragón (2016) REMUX 1080p Latino. Durante años el Sr. Meacham, un viejo tallador...

    Director: Joe Nolan

    Género: Aventura

    Actores: William J. Rawbone

  • El discurso del Rey (2010) REMUX 1080p Latino

    El discurso del Rey (2010) REMUX 1080p Latino

    2010
    El discurso del Rey (2010) REMUX 1080p Latino

    1h 58m 2010

    Descargar El discurso del Rey (2010) REMUX 1080p Latino. El duque de York se convirtió en rey de Gran...

    Director: Tom Hooper

    Género: Drama

    Actores: Tony Earnshaw

  • Lucy (2014) REMUX 4K HDR Latino – CMHDD

    Lucy (2014) REMUX 4K HDR Latino – CMHDD

    2014
    Lucy (2014) REMUX 4K HDR Latino – CMHDD

    1h 30m 2014

    Lucy, una joven obligada a ejercer de mula de una nueva y potente droga, adquiere de repente enormes...

    Director: Luc Besson

    Género: Acción

    Actores: Wolfgang Pissors

descargar El vidente (2007) REMUX 1080p Latino Full 1080p 1080p gratis, El vidente (2007) REMUX 1080p Latino Full 1080p mega 1 link, El vidente (2007) REMUX 1080p Latino Full 1080p pelicula completa, descargar El vidente (2007) REMUX 1080p Latino Full 1080p gratis en mega.

El vidente (2007) REMUX 1080p Latino pelicula full hd, El vidente (2007) REMUX 1080p Latino mega latino, El vidente (2007) REMUX 1080p Latino 4k latino, El vidente (2007) REMUX 1080p Latino pelicula completa, El vidente (2007) REMUX 1080p Latino descargar gratis, descargar El vidente (2007) REMUX 1080p Latino pelicula latino, El vidente (2007) REMUX 1080p Latino 1 link mega, El vidente (2007) REMUX 1080p Latino 1 link google drive, El vidente (2007) REMUX 1080p Latino hd 1080p latino.
Comentarios 0