×

¿Problemas para descargar con Mozilla, EDGE? Deshabilita la opción "Abrir vinculos en una pestaña nueva" tal como lo muestra ésta imagen.

New Girl (2016) Temporada 6 WEB-DL 1080p Latino

27 vistas

Información de New Girl (2016) Temporada 6 WEB-DL 1080p Latino

Datos de la película

  • Calidad: WEBDL
  • Audio: Se especifica abajo de la Sinopsis
  • Subtitulos: Español Latino SRT
  • Resolución: 1920x1080p
  • Formato: MKV
  • Codec: H.264
  • Encoder: Melkor
  • Mediainfo: Clic para Mostrar Datos Ver
  • New Girl S06E01 (2016) WEB 1080p Latino.mkv
    Format                      : Matroska
    Format version              : Version 4
    File size                   : 1.37 GiB
    Duration                    : 21 min 43 s
    Overall bit rate mode       : Variable
    Overall bit rate            : 9 063 kb/s
    Movie name                  : New Girl S06E01 - Buscando casa CinemaniaHDD.Net
    Encoded date                : UTC 2024-03-28 05:38:39
    Writing application         : mkvmerge v56.1.0 ('My Friend') 64-bit
    Writing library             : libebml v1.4.2 + libmatroska v1.6.4
    Attachments                 : CINEMANIAHD.png
    Site                        : CinemaniaHDD.Net
    Uploader                    : Melkor

    Video
    ID                          : 1
    Format                      : AVC
    Format/Info                 : Advanced Video Codec
    Format profile              : High@L4
    Format settings             : CABAC / 4 Ref Frames
    Format settings, CABAC      : Yes
    Format settings, Reference  : 4 frames
    Codec ID                    : V_MPEG4/ISO/AVC
    Duration                    : 21 min 43 s
    Bit rate mode               : Variable
    Bit rate                    : 8 548 kb/s
    Maximum bit rate            : 12.7 Mb/s
    Width                       : 1 920 pixels
    Height                      : 1 080 pixels
    Display aspect ratio        : 16:9
    Frame rate mode             : Constant
    Frame rate                  : 23.976 (24000/1001) FPS
    Color space                 : YUV
    Chroma subsampling          : 4:2:0
    Bit depth                   : 8 bits
    Scan type                   : Progressive
    Bits/(Pixel*Frame)          : 0.172
    Stream size                 : 1.30 GiB (94%)
    Title                       : WEB HD1080p [CinemaniaHDD]
    Default                     : Yes
    Forced                      : No
    Color range                 : Limited
    Color primaries             : BT.709
    Transfer characteristics    : BT.709
    Matrix coefficients         : BT.709

    Audio #1
    ID                          : 2
    Format                      : E-AC-3
    Format/Info                 : Enhanced AC-3
    Commercial name             : Dolby Digital Plus
    Codec ID                    : A_EAC3
    Duration                    : 21 min 43 s
    Bit rate mode               : Constant
    Bit rate                    : 256 kb/s
    Channel(s)                  : 6 channels
    Channel layout              : L R C LFE Ls Rs
    Sampling rate               : 48.0 kHz
    Frame rate                  : 31.250 FPS (1536 SPF)
    Compression mode            : Lossy
    Stream size                 : 39.8 MiB (3%)
    Title                       : Español Latino [CinemaniaHDD]
    Language                    : Spanish
    Service kind                : Complete Main
    Default                     : Yes
    Forced                      : No

    Audio #2
    ID                          : 3
    Format                      : E-AC-3
    Format/Info                 : Enhanced AC-3
    Commercial name             : Dolby Digital Plus
    Codec ID                    : A_EAC3
    Duration                    : 21 min 43 s
    Bit rate mode               : Constant
    Bit rate                    : 256 kb/s
    Channel(s)                  : 6 channels
    Channel layout              : L R C LFE Ls Rs
    Sampling rate               : 48.0 kHz
    Frame rate                  : 31.250 FPS (1536 SPF)
    Compression mode            : Lossy
    Stream size                 : 39.8 MiB (3%)
    Title                       : Ingles [CinemaniaHDD]
    Language                    : English
    Service kind                : Complete Main
    Default                     : No
    Forced                      : No

    Text #1
    ID                          : 4
    Format                      : UTF-8
    Codec ID                    : S_TEXT/UTF8
    Codec ID/Info               : UTF-8 Plain Text
    Duration                    : 21 min 37 s
    Bit rate                    : 103 b/s
    Count of elements           : 466
    Stream size                 : 16.5 KiB (0%)
    Title                       : Español-SRT [CinemaniaHDD]
    Language                    : Spanish
    Default                     : No
    Forced                      : No

    Text #2
    ID                          : 5
    Format                      : UTF-8
    Codec ID                    : S_TEXT/UTF8
    Codec ID/Info               : UTF-8 Plain Text
    Duration                    : 21 min 37 s
    Bit rate                    : 121 b/s
    Count of elements           : 619
    Stream size                 : 19.2 KiB (0%)
    Title                       : Ingles-SRT [CinemaniaHDD]
    Language                    : English
    Default                     : No
    Forced                      : No

  • Peso: 1.4 GiB -- 30 GiB -- 22 Chapters

Sinopsis

Descargar New Girl (2016) Temporada 6 WEB-DL 1080p Latino. Jess (Zooey Deschanel) es una chica adorable que acaba de romper con su novio, así que en un cambio de rumbo decide irse a compartir piso con tres atractivos chicos en busca de una nueva y diferente vida. Pero, ¿será la convivencia correcta vivir con tres solteros?

Temporada 6: Siguiendo los eventos de la temporada pasada, Nick y Reagan regresan de su viaje por Nueva Orleans. Jess, ahora que ha redescubierto sus sentimientos por Nick, tiene problemas adaptándose a la nueva dinámica del loft. Eventualmente ella comienza una relación con un viejo conocido, pero que termina abruptamente después de conocer un secreto que los relaciona a ambos. Mientras tanto, Cece y Schmidt se encuentra en la búsqueda de un nuevo hogar. Por su parte, la relación entre Winston y Aly sigue creciendo por lo que Winston se plantea la decisión de proponerle matrimonio.

Español Latino – Ingles [EAC3 5.1 D+] 

Ficha técnica

Video trailer de la película

Enlaces de descarga

Rip de Bluray

Descargar New Girl (2016) Temporada 6 WEB-DL 1080p Latino




Aportes de DPeliculasHDmega la pass es:dpeliculashdmega.org Aportes de CinemaniaHD la pass es:cinemaniahdd.com Aportes recientes:cinemaniahdd.net
Guardado en : Comedia , Series
Etiquetado en :

Películas relacionadas

descargar New Girl (2016) Temporada 6 WEB-DL 1080p Latino WEBDL 1080p gratis, New Girl (2016) Temporada 6 WEB-DL 1080p Latino WEBDL mega 1 link, New Girl (2016) Temporada 6 WEB-DL 1080p Latino WEBDL serie completa, descargar New Girl (2016) Temporada 6 WEB-DL 1080p Latino WEBDL gratis en mega.

New Girl (2016) Temporada 6 WEB-DL 1080p Latino pelicula full hd, New Girl (2016) Temporada 6 WEB-DL 1080p Latino mega latino, New Girl (2016) Temporada 6 WEB-DL 1080p Latino 4k latino, New Girl (2016) Temporada 6 WEB-DL 1080p Latino pelicula completa, New Girl (2016) Temporada 6 WEB-DL 1080p Latino descargar gratis, descargar New Girl (2016) Temporada 6 WEB-DL 1080p Latino pelicula latino, New Girl (2016) Temporada 6 WEB-DL 1080p Latino 1 link mega, New Girl (2016) Temporada 6 WEB-DL 1080p Latino 1 link google drive, New Girl (2016) Temporada 6 WEB-DL 1080p Latino hd 1080p latino.
Comentarios 0