×

¿Problemas para descargar con Mozilla, EDGE? Deshabilita la opción "Abrir vinculos en una pestaña nueva" tal como lo muestra ésta imagen.

New Girl (2012) Temporada 2 WEB-DL 1080p Latino

26 vistas

Información de New Girl (2012) Temporada 2 WEB-DL 1080p Latino

Datos de la película

  • Calidad: WEBDL
  • Audio: Se especifica abajo de la Sinopsis
  • Subtitulos: Español Latino SRT- FORZADOS SRT
  • Resolución: 1920x1080p
  • Formato: MKV
  • Codec: H.264
  • Encoder: Melkor
  • Mediainfo: Clic para Mostrar Datos Ver
  • New Girl S02E01 (2012) WEB 1080p Latino.mkv
    Format                      : Matroska
    Format version              : Version 4
    File size                   : 1.38 GiB
    Duration                    : 21 min 45 s
    Overall bit rate mode       : Variable
    Overall bit rate            : 9 082 kb/s
    Movie name                  : New Girl S02E01 - Relanzamiento CinemaniaHDD.Net
    Encoded date                : UTC 2024-03-25 04:08:22
    Writing application         : mkvmerge v56.1.0 ('My Friend') 64-bit
    Writing library             : libebml v1.4.2 + libmatroska v1.6.4
    Attachments                 : CINEMANIAHD.png
    Site                        : CinemaniaHDD.Net
    Uploader                    : Melkor

    Video
    ID                          : 1
    Format                      : AVC
    Format/Info                 : Advanced Video Codec
    Format profile              : High@L4
    Format settings             : CABAC / 4 Ref Frames
    Format settings, CABAC      : Yes
    Format settings, Reference  : 4 frames
    Codec ID                    : V_MPEG4/ISO/AVC
    Duration                    : 21 min 45 s
    Bit rate mode               : Variable
    Bit rate                    : 8 568 kb/s
    Maximum bit rate            : 12.7 Mb/s
    Width                       : 1 920 pixels
    Height                      : 1 080 pixels
    Display aspect ratio        : 16:9
    Frame rate mode             : Constant
    Frame rate                  : 23.976 (24000/1001) FPS
    Color space                 : YUV
    Chroma subsampling          : 4:2:0
    Bit depth                   : 8 bits
    Scan type                   : Progressive
    Bits/(Pixel*Frame)          : 0.172
    Stream size                 : 1.30 GiB (94%)
    Title                       : WEB HD1080p [CinemaniaHDD]
    Default                     : Yes
    Forced                      : No
    Color range                 : Limited
    Color primaries             : BT.709
    Transfer characteristics    : BT.709
    Matrix coefficients         : BT.709

    Audio #1
    ID                          : 2
    Format                      : E-AC-3
    Format/Info                 : Enhanced AC-3
    Commercial name             : Dolby Digital Plus
    Codec ID                    : A_EAC3
    Duration                    : 21 min 45 s
    Bit rate mode               : Constant
    Bit rate                    : 256 kb/s
    Channel(s)                  : 6 channels
    Channel layout              : L R C LFE Ls Rs
    Sampling rate               : 48.0 kHz
    Frame rate                  : 31.250 FPS (1536 SPF)
    Compression mode            : Lossy
    Stream size                 : 39.9 MiB (3%)
    Title                       : Español Latino [CinemaniaHDD]
    Language                    : Spanish
    Service kind                : Complete Main
    Default                     : Yes
    Forced                      : No

    Audio #2
    ID                          : 3
    Format                      : E-AC-3
    Format/Info                 : Enhanced AC-3
    Commercial name             : Dolby Digital Plus
    Codec ID                    : A_EAC3
    Duration                    : 21 min 45 s
    Bit rate mode               : Constant
    Bit rate                    : 256 kb/s
    Channel(s)                  : 6 channels
    Channel layout              : L R C LFE Ls Rs
    Sampling rate               : 48.0 kHz
    Frame rate                  : 31.250 FPS (1536 SPF)
    Compression mode            : Lossy
    Stream size                 : 39.9 MiB (3%)
    Title                       : Ingles [CinemaniaHDD]
    Language                    : English
    Service kind                : Complete Main
    Default                     : No
    Forced                      : No

    Text #1
    ID                          : 4
    Format                      : UTF-8
    Codec ID                    : S_TEXT/UTF8
    Codec ID/Info               : UTF-8 Plain Text
    Duration                    : 21 min 34 s
    Bit rate                    : 89 b/s
    Count of elements           : 358
    Stream size                 : 14.2 KiB (0%)
    Title                       : Español-SRT [CinemaniaHDD]
    Language                    : Spanish
    Default                     : No
    Forced                      : No

    Text #2
    ID                          : 5
    Format                      : UTF-8
    Codec ID                    : S_TEXT/UTF8
    Codec ID/Info               : UTF-8 Plain Text
    Duration                    : 21 min 33 s
    Bit rate                    : 108 b/s
    Count of elements           : 530
    Stream size                 : 17.1 KiB (0%)
    Title                       : Ingles-SRT [CinemaniaHDD]
    Language                    : English
    Default                     : No
    Forced                      : No

  • Peso: 1.4 GiB -- 34.3 GiB -- 25 Chapters

Sinopsis

Descargar New Girl (2012) Temporada 2 WEB-DL 1080p Latino. Jess (Zooey Deschanel) es una chica adorable que acaba de romper con su novio, así que en un cambio de rumbo decide irse a compartir piso con tres atractivos chicos en busca de una nueva y diferente vida. Pero, ¿será la convivencia correcta vivir con tres solteros?

Temporada 2: En la segunda temporada, Jess pierde su empleo y pasa por depresión, por lo que comienza a salir con un doctor llamado Sam. Cuando termina con el comienza a tener sentimientos por Nick pero ninguno de los dos sabe definir la relación. Nick invita a salir a Jess y después de esto su relación comienza. Schmidt intenta olvidar a CeCe, después de que esta sea comprometida por sus padres con un chico indio, Shivrang. Schmidt se reencuentra con su novia de la universidad, Elizabeth y después de altibajos vuelven. En la boda de CeCe, aparece una chica llamada Elaine (Taylor Swift) y le confiesa su amor a Shivrang, por lo que CeCe y Shivrang rompen su compromiso. CeCe le confiesa su amor a Schmidt y Elizabeth está enamorada de el también, algo que lo deja confundido y sale corriendo sin responderle a ninguna de las dos. Mientras tanto Winston comienza a salir con una chica llamada Daisy.

Español Latino – Ingles [EAC3 5.1 D+] 

Ficha técnica

Video trailer de la película

Enlaces de descarga

Rip de Bluray

Descargar New Girl (2012) Temporada 2 WEB-DL 1080p Latino




Aportes de DPeliculasHDmega la pass es:dpeliculashdmega.org Aportes de CinemaniaHD la pass es:cinemaniahdd.com Aportes recientes:cinemaniahdd.net
Guardado en : Comedia , Series
Etiquetado en :

Películas relacionadas

  • Chucky (2023) Temporada 3 WEB-DL 1080p Latino

    Chucky (2023) Temporada 3 WEB-DL 1080p Latino

    2021
    Chucky (2023) Temporada 3 WEB-DL 1080p Latino

    0h 42m 2021

    El infame Chucky se abre paso a cuchilladas hacia la televisión en una nueva y mortífera serie escrita...

    Director: Nick Antosca

    Género: Crimen

    Actores: Zackary Arthur

  • Good Burger 2 (2023) HD 1080p Latino

    Good Burger 2 (2023) HD 1080p Latino

    2023
    Good Burger 2 (2023) HD 1080p Latino

    1h 31m 2023

    Descargar Good Burger 2 (2023) HD 1080p Latino. Después de que su último invento falla, Ed le da la...

    Director: Ross Novie

    Género: Comedia

    Actores: Zoe Saldana

  • Good Burger 2 (2023) PLACEBO Full HD 1080p Latino

    Good Burger 2 (2023) PLACEBO Full HD 1080p Latino

    2023
    Good Burger 2 (2023) PLACEBO Full HD 1080p Latino

    1h 31m 2023

    Descargar Good Burger 2 (2023) PLACEBO Full HD 1080p Latino. Después de que su último invento falla,...

    Director: Ross Novie

    Género: Comedia

    Actores: Zoe Saldana

descargar New Girl (2012) Temporada 2 WEB-DL 1080p Latino WEBDL 1080p gratis, New Girl (2012) Temporada 2 WEB-DL 1080p Latino WEBDL mega 1 link, New Girl (2012) Temporada 2 WEB-DL 1080p Latino WEBDL serie completa, descargar New Girl (2012) Temporada 2 WEB-DL 1080p Latino WEBDL gratis en mega.

New Girl (2012) Temporada 2 WEB-DL 1080p Latino pelicula full hd, New Girl (2012) Temporada 2 WEB-DL 1080p Latino mega latino, New Girl (2012) Temporada 2 WEB-DL 1080p Latino 4k latino, New Girl (2012) Temporada 2 WEB-DL 1080p Latino pelicula completa, New Girl (2012) Temporada 2 WEB-DL 1080p Latino descargar gratis, descargar New Girl (2012) Temporada 2 WEB-DL 1080p Latino pelicula latino, New Girl (2012) Temporada 2 WEB-DL 1080p Latino 1 link mega, New Girl (2012) Temporada 2 WEB-DL 1080p Latino 1 link google drive, New Girl (2012) Temporada 2 WEB-DL 1080p Latino hd 1080p latino.
Comentarios 0