×

¿Problemas para descargar con Mozilla, EDGE? Deshabilita la opción "Abrir vinculos en una pestaña nueva" tal como lo muestra ésta imagen.

James Bond: Nunca Digas Nunca Jamás (1983) 1080p Latino

419 vistas

Información de James Bond: Nunca Digas Nunca Jamás (1983) 1080p Latino

Datos de la película

  • Calidad: 1080p
  • Audio: Español Latino AC3 2.0 BLURAY - Ingles AC3 5.1 BLURAY
  • Subtitulos: Español Latino SRT - Ingles SRT
  • Resolución: 1920x818p
  • Formato: MKV
  • Codec: H.264
  • Encoder: CinefiloCool
  • Mediainfo: Clic para Mostrar Datos Ver
  • Nunca Digas Nunca Jamas (1983) 1080p Latino-CMHDD.mkv
    Format                      : Matroska
    Format version              : Version 4
    File size                   : 4.65 GiB
    Duration                    : 2 h 14 min
    Overall bit rate mode       : Variable
    Overall bit rate            : 4 961 kb/s
    Movie name                  : Never Say Never Again (1983) CinemaniaHDD.Net
    Encoded date                : UTC 2020-06-06 06:49:39
    Writing application         : mkvmerge v46.0.0 ('No Deeper Escape') 64-bit
    Writing library             : libebml v1.3.10 + libmatroska v1.5.2
    Attachments                 : CINEMANIAHD.png

    Video
    ID                          : 1
    Format                      : AVC
    Format/Info                 : Advanced Video Codec
    Format profile              : High@L4
    Format settings             : CABAC / 3 Ref Frames
    Format settings, CABAC      : Yes
    Format settings, Reference  : 3 frames
    Codec ID                    : V_MPEG4/ISO/AVC
    Duration                    : 2 h 14 min
    Bit rate mode               : Variable
    Bit rate                    : 4 096 kb/s
    Width                       : 1 920 pixels
    Height                      : 818 pixels
    Display aspect ratio        : 2.35:1
    Frame rate mode             : Constant
    Frame rate                  : 23.976 (24000/1001) FPS
    Color space                 : YUV
    Chroma subsampling          : 4:2:0
    Bit depth                   : 8 bits
    Scan type                   : Progressive
    Bits/(Pixel*Frame)          : 0.109
    Stream size                 : 3.84 GiB (83%)
    Title                       : HD1080p [CinemaniaHDD]
    Writing library             : x264 core 142 r2479 dd79a61
    Encoding settings           : cabac=1 / ref=3 / deblock=1:0:0 / analyse=0x3:0x113 / me=hex / subme=7 / psy=1 / psy_rd=1.00:0.00 / mixed_ref=1 / me_range=16 / chroma_me=1 / trellis=1 / 8x8dct=1 / cqm=0 / deadzone=21,11 / fast_pskip=1 / chroma_qp_offset=-2 / threads=6 / lookahead_threads=1 / sliced_threads=0 / nr=0 / decimate=1 / interlaced=0 / bluray_compat=0 / constrained_intra=0 / bframes=3 / b_pyramid=0 / b_adapt=1 / b_bias=0 / direct=1 / weightb=1 / open_gop=0 / weightp=2 / keyint=240 / keyint_min=24 / scenecut=40 / intra_refresh=0 / rc_lookahead=40 / rc=2pass / mbtree=1 / bitrate=4096 / ratetol=1.0 / qcomp=0.60 / qpmin=0 / qpmax=69 / qpstep=4 / cplxblur=20.0 / qblur=0.5 / vbv_maxrate=25000 / vbv_bufsize=25000 / nal_hrd=vbr / filler=0 / ip_ratio=1.40 / aq=1:1.00
    Default                     : Yes
    Forced                      : No

    Audio #1
    ID                          : 2
    Format                      : AC-3
    Format/Info                 : Audio Coding 3
    Commercial name             : Dolby Digital
    Codec ID                    : A_AC3
    Duration                    : 2 h 14 min
    Bit rate mode               : Constant
    Bit rate                    : 224 kb/s
    Channel(s)                  : 2 channels
    Channel layout              : L R
    Sampling rate               : 48.0 kHz
    Frame rate                  : 31.250 FPS (1536 SPF)
    Compression mode            : Lossy
    Stream size                 : 215 MiB (5%)
    Title                       : Español Latino [CinemaniaHDD]
    Language                    : Spanish
    Service kind                : Complete Main
    Default                     : Yes
    Forced                      : No

    Audio #2
    ID                          : 3
    Format                      : AC-3
    Format/Info                 : Audio Coding 3
    Commercial name             : Dolby Digital
    Codec ID                    : A_AC3
    Duration                    : 2 h 14 min
    Bit rate mode               : Constant
    Bit rate                    : 640 kb/s
    Channel(s)                  : 6 channels
    Channel layout              : L R C LFE Ls Rs
    Sampling rate               : 48.0 kHz
    Frame rate                  : 31.250 FPS (1536 SPF)
    Compression mode            : Lossy
    Stream size                 : 614 MiB (13%)
    Title                       : Ingles [CinemaniaHDD]
    Language                    : English
    Service kind                : Complete Main
    Default                     : No
    Forced                      : No

    Text #1
    ID                          : 4
    Format                      : UTF-8
    Codec ID                    : S_TEXT/UTF8
    Codec ID/Info               : UTF-8 Plain Text
    Duration                    : 1 h 40 min
    Bit rate                    : 0 b/s
    Count of elements           : 12
    Stream size                 : 347 Bytes (0%)
    Title                       : Forzados-SRT [CinemaniaHDD]
    Language                    : Spanish
    Default                     : Yes
    Forced                      : No

    Text #2
    ID                          : 5
    Format                      : UTF-8
    Codec ID                    : S_TEXT/UTF8
    Codec ID/Info               : UTF-8 Plain Text
    Duration                    : 2 h 5 min
    Bit rate                    : 35 b/s
    Count of elements           : 877
    Stream size                 : 32.3 KiB (0%)
    Title                       : Español-SRT [CinemaniaHDD]
    Language                    : Spanish
    Default                     : No
    Forced                      : No

    Text #3
    ID                          : 6
    Format                      : UTF-8
    Codec ID                    : S_TEXT/UTF8
    Codec ID/Info               : UTF-8 Plain Text
    Duration                    : 2 h 11 min
    Bit rate                    : 32 b/s
    Count of elements           : 1023
    Stream size                 : 31.7 KiB (0%)
    Title                       : Ingles-SRT [CinemaniaHDD]
    Language                    : English
    Default                     : No
    Forced                      : No

    Menu
    00:00:00.000                : en:Logo / Title / Intro
    00:04:17.173                : en:Purge Those Toxins
    00:07:35.455                : en:Spectre Hq
    00:10:18.284                : en:Physical Relations
    00:12:53.689                : en:One Hell of a Nurse
    00:16:07.007                : en:Basic Training
    00:23:00.462                : en:The Blink of an Eye
    00:27:06.499                : en:What a Snake
    00:28:33.962                : en:Diverting Missiles
    00:31:17.709                : en:Worldwide Panic
    00:37:06.974                : en:The Tears of Allah
    00:40:30.010                : en:No Money for Q
    00:43:05.165                : en:Foreign But Charming
    00:45:41.905                : en:Fishing Expedition
    00:49:03.023                : en:A Shark View
    00:53:33.627                : en:An Awkward Moment
    00:56:18.083                : en:Nice's Nice View
    00:59:38.700                : en:"Hard or Soft?"
    01:04:25.820                : en:The Challenge
    01:09:58.360                : en:Playing for Domino
    01:17:21.595                : en:Bad News Tango
    01:20:15.227                : en:The New Bike
    01:25:33.920                : en:Fatima's Legacy
    01:30:16.661                : en:Lunch?
    01:34:48.349                : en:Betrayed with a Kiss
    01:38:34.533                : en:A Gift for the Damned
    01:41:19.156                : en:Selling Domino
    01:49:31.189                : en:Other Plans
    01:51:40.652                : en:Map of the Tears
    01:57:33.796                : en:Clearing the Cave
    02:04:21.996                : en:Underwater Battle
    02:08:05.177                : en:Never Again / Credits

  • Peso: 4.65 GiB

Sinopsis

Descargar James Bond: Nunca Digas Nunca Jamás (1983) 1080p Latino. James Bond comete un error durante una misión de entrenamiento, lo que hace que M piense que el agente secreto está en mala forma. Como resultado, M suspende a Bond de sus funciones. Sin embargo, cuando la organización terrorista Spectre roba dos mísiles nucleares, M tiene que volver a confiar en Bond, pues él es el único agente que puede derrotar a Spectre.

A diferencia de la mayoría de las películas de James Bond, Nunca digas nunca jamás no fue producida por Eon Productions, sino por una productora independiente, La película fue dirigida por Irvin Kershner y, como Operación Trueno, está protagonizada por Sean Connery como James Bond marcando su regreso al papel 12 años después de Diamonds Are Forever, el título de la película hace referencia a cómo Connery dijo en 1971 que «nunca más» interpretaría a James Bond. De las 3 las películas no realizadas por EON, las llamadas no oficiales (a pesar que cumplen todos los derechos legales para la utilización del personaje) solo Never say never again es la mas aceptada ya que las otras dos; Casino Royale (1954) y Casino Royale (1967), son una adaptacion para un programa de Television y una parodia respectivamente.

Ficha técnica

Video trailer de la película

Enlaces de descarga

Rip de Bluray

Descargar James Bond: Nunca Digas Nunca Jamás (1983) 1080p Latino




Aportes de DPeliculasHDmega la pass es:dpeliculashdmega.org Aportes de CinemaniaHD la pass es:cinemaniahdd.com
Guardado en : Acción , Aventura , HD 1080p , Suspenso

Películas relacionadas

  • Paradise Highway (2022) HD 1080p Latino

    Paradise Highway (2022) HD 1080p Latino

    2022
    Paradise Highway (2022) HD 1080p Latino

    1h 55m 2022

    Descargar Paradise Highway (2022) HD 1080p Latino. Un camionero se ha visto obligado a pasar de contrabando...

    Director: Anna Gutto

    Género: Crimen

    Actores: Xavier Scott Evans

  • Paradise Highway (2022) PLACEBO Full HD 1080p Latino

    Paradise Highway (2022) PLACEBO Full HD 1080p Latino

    2022
    Paradise Highway (2022) PLACEBO Full HD 1080p Latino

    1h 55m 2022

    Descargar Paradise Highway (2022) PLACEBO Full HD 1080p Latino. Un camionero se ha visto obligado a pasar...

    Director: Anna Gutto

    Género: Crimen

    Actores: Xavier Scott Evans

  • Paradise Highway (2022) REMUX 1080p Latino

    Paradise Highway (2022) REMUX 1080p Latino

    2022
    Paradise Highway (2022) REMUX 1080p Latino

    1h 55m 2022

    Descargar Paradise Highway (2022) REMUX 1080p Latino. Un camionero se ha visto obligado a pasar de contrabando...

    Director: Anna Gutto

    Género: Crimen

    Actores: Xavier Scott Evans

  • Shotgun Wedding (2022) AMZN WEB-DL 1080p Latino

    Shotgun Wedding (2022) AMZN WEB-DL 1080p Latino

    2022
    Shotgun Wedding (2022) AMZN WEB-DL 1080p Latino

    1h 41m 2022

    Darcy y Tom reúnen a sus familias para la boda de destino definitiva, pero cuando toman como rehenes...

    Director: Jason Moore

    Género: Acción

    Actores: Steve Coulter

descargar James Bond: Nunca Digas Nunca Jamás (1983) 1080p Latino 1080p 1080p gratis, James Bond: Nunca Digas Nunca Jamás (1983) 1080p Latino 1080p mega 1 link, James Bond: Nunca Digas Nunca Jamás (1983) 1080p Latino 1080p pelicula completa, descargar James Bond: Nunca Digas Nunca Jamás (1983) 1080p Latino 1080p gratis en mega.

James Bond: Nunca Digas Nunca Jamás (1983) 1080p Latino pelicula full hd, James Bond: Nunca Digas Nunca Jamás (1983) 1080p Latino mega latino, James Bond: Nunca Digas Nunca Jamás (1983) 1080p Latino 4k latino, James Bond: Nunca Digas Nunca Jamás (1983) 1080p Latino pelicula completa, James Bond: Nunca Digas Nunca Jamás (1983) 1080p Latino descargar gratis, descargar James Bond: Nunca Digas Nunca Jamás (1983) 1080p Latino pelicula latino, James Bond: Nunca Digas Nunca Jamás (1983) 1080p Latino 1 link mega, James Bond: Nunca Digas Nunca Jamás (1983) 1080p Latino 1 link google drive, James Bond: Nunca Digas Nunca Jamás (1983) 1080p Latino hd 1080p latino.
Comentarios 0