×

¿Problemas para descargar con Mozilla, EDGE? Deshabilita la opción "Abrir vinculos en una pestaña nueva" tal como lo muestra ésta imagen.

James Bond: Nunca Digas Nunca Jamás (1983) Full HD 1080p Latino

439 vistas

Información de James Bond: Nunca Digas Nunca Jamás (1983) Full HD 1080p Latino

Datos de la película

  • Calidad: Full 1080p
  • Audio: Español Latino AC3 2.0 BLURAY - Ingles DTS 5.1 BLURAY
  • Subtitulos: Español Latino PGS - Ingles PGS
  • Resolución: 1920x1080p
  • Formato: MKV
  • Codec: H.264
  • Encoder: CinefiloCool
  • Mediainfo: Clic para Mostrar Datos Ver
  • Nunca Digas Nunca Jamas (1983) Full HD 1080p Latino-CMHDD.mkv
    Format                      : Matroska
    Format version              : Version 4
    File size                   : 12.6 GiB
    Duration                    : 2 h 14 min
    Overall bit rate            : 13.5 Mb/s
    Movie name                  : Never Say Never Again (1983) CinemaniaHDD.Net
    Encoded date                : UTC 2020-06-06 17:36:39
    Writing application         : mkvmerge v46.0.0 ('No Deeper Escape') 64-bit
    Writing library             : libebml v1.3.10 + libmatroska v1.5.2
    Attachments                 : CINEMANIAHD.png

    Video
    ID                          : 1
    Format                      : AVC
    Format/Info                 : Advanced Video Codec
    Format profile              : High@L4.1
    Format settings             : CABAC / 4 Ref Frames
    Format settings, CABAC      : Yes
    Format settings, Reference  : 4 frames
    Codec ID                    : V_MPEG4/ISO/AVC
    Duration                    : 2 h 14 min
    Bit rate                    : 11.7 Mb/s
    Width                       : 1 920 pixels
    Height                      : 1 080 pixels
    Display aspect ratio        : 16:9
    Frame rate mode             : Constant
    Frame rate                  : 23.976 (24000/1001) FPS
    Color space                 : YUV
    Chroma subsampling          : 4:2:0
    Bit depth                   : 8 bits
    Scan type                   : Progressive
    Bits/(Pixel*Frame)          : 0.235
    Stream size                 : 11.0 GiB (87%)
    Title                       : Full HD1080p [CinemaniaHDD]
    Writing library             : x264 core 157 r2935 545de2f
    Encoding settings           : cabac=1 / ref=4 / deblock=1:0:0 / analyse=0x3:0x133 / me=esa / subme=10 / psy=1 / psy_rd=1.00:0.00 / mixed_ref=1 / me_range=24 / chroma_me=1 / trellis=2 / 8x8dct=1 / cqm=0 / deadzone=21,11 / fast_pskip=1 / chroma_qp_offset=-2 / threads=24 / lookahead_threads=4 / sliced_threads=0 / nr=0 / decimate=1 / interlaced=0 / bluray_compat=0 / constrained_intra=0 / bframes=8 / b_pyramid=2 / b_adapt=2 / b_bias=0 / direct=3 / weightb=1 / open_gop=0 / weightp=2 / keyint=240 / keyint_min=24 / scenecut=40 / intra_refresh=0 / rc_lookahead=60 / rc=crf / mbtree=1 / crf=20.0 / qcomp=0.60 / qpmin=0 / qpmax=69 / qpstep=4 / vbv_maxrate=62500 / vbv_bufsize=78125 / crf_max=0.0 / nal_hrd=none / filler=0 / ip_ratio=1.40 / aq=1:1.00
    Default                     : Yes
    Forced                      : No
    Color range                 : Limited
    Color primaries             : BT.709
    Transfer characteristics    : BT.709
    Matrix coefficients         : BT.709

    Audio #1
    ID                          : 2
    Format                      : AC-3
    Format/Info                 : Audio Coding 3
    Commercial name             : Dolby Digital
    Codec ID                    : A_AC3
    Duration                    : 2 h 14 min
    Bit rate mode               : Constant
    Bit rate                    : 224 kb/s
    Channel(s)                  : 2 channels
    Channel layout              : L R
    Sampling rate               : 48.0 kHz
    Frame rate                  : 31.250 FPS (1536 SPF)
    Compression mode            : Lossy
    Stream size                 : 215 MiB (2%)
    Title                       : Español Latino [CinemaniaHDD]
    Language                    : Spanish
    Service kind                : Complete Main
    Default                     : Yes
    Forced                      : No

    Audio #2
    ID                          : 3
    Format                      : DTS
    Format/Info                 : Digital Theater Systems
    Codec ID                    : A_DTS
    Duration                    : 2 h 14 min
    Bit rate mode               : Constant
    Bit rate                    : 1 509 kb/s
    Channel(s)                  : 6 channels
    Channel layout              : C L R Ls Rs LFE
    Sampling rate               : 48.0 kHz
    Frame rate                  : 93.750 FPS (512 SPF)
    Bit depth                   : 24 bits
    Compression mode            : Lossy
    Stream size                 : 1.41 GiB (11%)
    Title                       : Ingles [CinemaniaHDD]
    Language                    : English
    Default                     : No
    Forced                      : No

    Text #1
    ID                          : 4
    Format                      : PGS
    Muxing mode                 : zlib
    Codec ID                    : S_HDMV/PGS
    Codec ID/Info               : Picture based subtitle format used on BDs/HD-DVDs
    Duration                    : 2 h 5 min
    Bit rate                    : 19.3 kb/s
    Count of elements           : 1554
    Stream size                 : 17.2 MiB (0%)
    Title                       : Español-PGS [CinemaniaHDD]
    Language                    : Spanish
    Default                     : No
    Forced                      : No

    Text #2
    ID                          : 5
    Format                      : PGS
    Muxing mode                 : zlib
    Codec ID                    : S_HDMV/PGS
    Codec ID/Info               : Picture based subtitle format used on BDs/HD-DVDs
    Duration                    : 2 h 12 min
    Bit rate                    : 24.4 kb/s
    Count of elements           : 2286
    Stream size                 : 23.1 MiB (0%)
    Title                       : Ingles-PGS [CinemaniaHDD]
    Language                    : English
    Default                     : No
    Forced                      : No

    Text #3
    ID                          : 6
    Format                      : UTF-8
    Codec ID                    : S_TEXT/UTF8
    Codec ID/Info               : UTF-8 Plain Text
    Duration                    : 1 h 40 min
    Bit rate                    : 0 b/s
    Count of elements           : 12
    Stream size                 : 347 Bytes (0%)
    Title                       : Forzados-SRT [CinemaniaHDD]
    Language                    : Spanish
    Default                     : Yes
    Forced                      : Yes

    Text #4
    ID                          : 7
    Format                      : UTF-8
    Codec ID                    : S_TEXT/UTF8
    Codec ID/Info               : UTF-8 Plain Text
    Duration                    : 2 h 5 min
    Bit rate                    : 35 b/s
    Count of elements           : 877
    Stream size                 : 32.3 KiB (0%)
    Title                       : Español-SRT [CinemaniaHDD]
    Language                    : Spanish
    Default                     : No
    Forced                      : No

    Menu
    00:00:00.000                : en:Logo / Title / Intro
    00:04:17.173                : en:Purge Those Toxins
    00:07:35.455                : en:Spectre Hq
    00:10:18.284                : en:Physical Relations
    00:12:53.689                : en:One Hell of a Nurse
    00:16:07.007                : en:Basic Training
    00:23:00.462                : en:The Blink of an Eye
    00:27:06.499                : en:What a Snake
    00:28:33.962                : en:Diverting Missiles
    00:31:17.709                : en:Worldwide Panic
    00:37:06.974                : en:The Tears of Allah
    00:40:30.010                : en:No Money for Q
    00:43:05.165                : en:Foreign But Charming
    00:45:41.905                : en:Fishing Expedition
    00:49:03.023                : en:A Shark View
    00:53:33.627                : en:An Awkward Moment
    00:56:18.083                : en:Nice's Nice View
    00:59:38.700                : en:"Hard or Soft?"
    01:04:25.820                : en:The Challenge
    01:09:58.360                : en:Playing for Domino
    01:17:21.595                : en:Bad News Tango
    01:20:15.227                : en:The New Bike
    01:25:33.920                : en:Fatima's Legacy
    01:30:16.661                : en:Lunch?
    01:34:48.349                : en:Betrayed with a Kiss
    01:38:34.533                : en:A Gift for the Damned
    01:41:19.156                : en:Selling Domino
    01:49:31.189                : en:Other Plans
    01:51:40.652                : en:Map of the Tears
    01:57:33.796                : en:Clearing the Cave
    02:04:21.996                : en:Underwater Battle
    02:08:05.177                : en:Never Again / Credits

  • Peso: 12.6 GiB

Sinopsis

Descargar James Bond: Nunca Digas Nunca Jamás (1983) Full HD 1080p Latino. James Bond comete un error durante una misión de entrenamiento, lo que hace que M piense que el agente secreto está en mala forma. Como resultado, M suspende a Bond de sus funciones. Sin embargo, cuando la organización terrorista Spectre roba dos mísiles nucleares, M tiene que volver a confiar en Bond, pues él es el único agente que puede derrotar a Spectre.

A diferencia de la mayoría de las películas de James Bond, Nunca digas nunca jamás no fue producida por Eon Productions, sino por una productora independiente, La película fue dirigida por Irvin Kershner y, como Operación Trueno, está protagonizada por Sean Connery como James Bond marcando su regreso al papel 12 años después de Diamonds Are Forever, el título de la película hace referencia a cómo Connery dijo en 1971 que «nunca más» interpretaría a James Bond. De las 3 las películas no realizadas por EON, las llamadas no oficiales (a pesar que cumplen todos los derechos legales para la utilización del personaje) solo Never say never again es la mas aceptada ya que las otras dos; Casino Royale (1954) y Casino Royale (1967), son una adaptacion para un programa de Television y una parodia respectivamente.

Ficha técnica

Video trailer de la película

Enlaces de descarga

Rip de Bluray

Descargar James Bond: Nunca Digas Nunca Jamás (1983) Full HD 1080p Latino




Aportes de DPeliculasHDmega la pass es:dpeliculashdmega.org Aportes de CinemaniaHD la pass es:cinemaniahdd.com

Películas relacionadas

  • Tren Bala (2022) WEB-DL 4K UHD HDR Latino

    Tren Bala (2022) WEB-DL 4K UHD HDR Latino

    2022
    Tren Bala (2022) WEB-DL 4K UHD HDR Latino

    2h 7m 2022

    Descargar Tren Bala (2022) WEB-DL 4K UHD HDR Latino. El desafortunado asesino "Catarina" está decidido...

    Director: Paul Barry

    Género: 4K HDR

    Actores: Zooey Miyoshi

  • Tren Bala (2022) AMZN WEB-DL 1080p Latino

    Tren Bala (2022) AMZN WEB-DL 1080p Latino

    2022
    Tren Bala (2022) AMZN WEB-DL 1080p Latino

    2h 7m 2022

    Descargar Tren Bala (2022) AMZN WEB-DL 1080p Latino. Cinco asesinos a sueldo se encuentran a bordo de...

    Director: Paul Barry

    Género: Acción

    Actores: Zooey Miyoshi

  • Athena (2022) NF WEB-DL 1080p Latino

    Athena (2022) NF WEB-DL 1080p Latino

    2022
    Athena (2022) NF WEB-DL 1080p Latino

    1h 37m 2022

    Descargar Athena (2022) NF WEB-DL 1080p Latino. Horas después de la trágica muerte de su hermano menor...

    Director: Romain Gavras

    Género: Acción

    Actores: Tarek Haddaji

  • Lou (2022) NF WEB-DL 1080p Latino

    Lou (2022) NF WEB-DL 1080p Latino

    2022
    Lou (2022) NF WEB-DL 1080p Latino

    1h 47m 2022

    Descargar Lou (2022) NF WEB-DL 1080p Latino. Una mujer misteriosa y solitaria lucha contra las inclemencias...

    Director: Anna Foerster

    Género: Acción

    Actores: Toby Levins

descargar James Bond: Nunca Digas Nunca Jamás (1983) Full HD 1080p Latino Full 1080p 1080p gratis, James Bond: Nunca Digas Nunca Jamás (1983) Full HD 1080p Latino Full 1080p mega 1 link, James Bond: Nunca Digas Nunca Jamás (1983) Full HD 1080p Latino Full 1080p pelicula completa, descargar James Bond: Nunca Digas Nunca Jamás (1983) Full HD 1080p Latino Full 1080p gratis en mega.

James Bond: Nunca Digas Nunca Jamás (1983) Full HD 1080p Latino pelicula full hd, James Bond: Nunca Digas Nunca Jamás (1983) Full HD 1080p Latino mega latino, James Bond: Nunca Digas Nunca Jamás (1983) Full HD 1080p Latino 4k latino, James Bond: Nunca Digas Nunca Jamás (1983) Full HD 1080p Latino pelicula completa, James Bond: Nunca Digas Nunca Jamás (1983) Full HD 1080p Latino descargar gratis, descargar James Bond: Nunca Digas Nunca Jamás (1983) Full HD 1080p Latino pelicula latino, James Bond: Nunca Digas Nunca Jamás (1983) Full HD 1080p Latino 1 link mega, James Bond: Nunca Digas Nunca Jamás (1983) Full HD 1080p Latino 1 link google drive, James Bond: Nunca Digas Nunca Jamás (1983) Full HD 1080p Latino hd 1080p latino.
Comentarios 0