×

¿Problemas para descargar con Mozilla, EDGE? Deshabilita la opción "Abrir vinculos en una pestaña nueva" tal como lo muestra ésta imagen.

Nunca me abandones (2010) REMUX 1080p Latino

278 vistas

Información de Nunca me abandones (2010) REMUX 1080p Latino

Datos de la película

  • Calidad: Full 1080p
  • Audio: Español Latino AC3 5.1 BLURAY - Ingles DTS 5.1 BLURAY
  • Subtitulos: Español Latino PGS - Ingles PGS
  • Resolución: 1920x1080p
  • Formato: MKV
  • Codec: H.264
  • Encoder: CinefiloCool
  • Mediainfo: Clic para Mostrar Datos Ver
  • Nunca Me Abandones (2010) REMUX 1080p Latino-CMHDD.mkv
    Format                      : Matroska
    Format version              : Version 4
    File size                   : 25.8 GiB
    Duration                    : 1 h 44 min
    Overall bit rate mode       : Variable
    Overall bit rate            : 35.5 Mb/s
    Movie name                  : Never Let Me Go (2010) CinemaniaHDD.Net
    Encoded date                : UTC 2022-05-20 05:51:13
    Writing application         : mkvmerge v56.1.0 ('My Friend') 64-bit
    Writing library             : libebml v1.4.2 + libmatroska v1.6.4
    Attachments                 : CINEMANIAHD.png

    Video
    ID                          : 1
    Format                      : AVC
    Format/Info                 : Advanced Video Codec
    Format profile              : High@L4.1
    Format settings             : CABAC / 4 Ref Frames
    Format settings, CABAC      : Yes
    Format settings, Reference  : 4 frames
    Codec ID                    : V_MPEG4/ISO/AVC
    Duration                    : 1 h 44 min
    Bit rate mode               : Variable
    Bit rate                    : 31.7 Mb/s
    Maximum bit rate            : 34.0 Mb/s
    Width                       : 1 920 pixels
    Height                      : 1 080 pixels
    Display aspect ratio        : 16:9
    Frame rate mode             : Constant
    Frame rate                  : 23.976 (24000/1001) FPS
    Color space                 : YUV
    Chroma subsampling          : 4:2:0
    Bit depth                   : 8 bits
    Scan type                   : Progressive
    Bits/(Pixel*Frame)          : 0.638
    Stream size                 : 23.0 GiB (89%)
    Title                       : REMUX HD1080p [CinemaniaHDD]
    Default                     : Yes
    Forced                      : Yes
    Color range                 : Limited
    Color primaries             : BT.709
    Transfer characteristics    : BT.709
    Matrix coefficients         : BT.709

    Audio #1
    ID                          : 2
    Format                      : AC-3
    Format/Info                 : Audio Coding 3
    Commercial name             : Dolby Digital
    Codec ID                    : A_AC3
    Duration                    : 1 h 44 min
    Bit rate mode               : Constant
    Bit rate                    : 448 kb/s
    Channel(s)                  : 6 channels
    Channel layout              : L R C LFE Ls Rs
    Sampling rate               : 48.0 kHz
    Frame rate                  : 31.250 FPS (1536 SPF)
    Compression mode            : Lossy
    Stream size                 : 333 MiB (1%)
    Title                       : Español Latino [CinemaniaHDD]
    Language                    : Spanish
    Service kind                : Complete Main
    Default                     : Yes
    Forced                      : Yes

    Audio #2
    ID                          : 3
    Format                      : DTS XLL
    Format/Info                 : Digital Theater Systems
    Commercial name             : DTS-HD Master Audio
    Codec ID                    : A_DTS
    Duration                    : 1 h 44 min
    Bit rate mode               : Variable
    Bit rate                    : 3 312 kb/s
    Channel(s)                  : 6 channels
    Channel layout              : C L R Ls Rs LFE
    Sampling rate               : 48.0 kHz
    Frame rate                  : 93.750 FPS (512 SPF)
    Bit depth                   : 24 bits
    Compression mode            : Lossless
    Stream size                 : 2.41 GiB (9%)
    Title                       : Ingles [CinemaniaHDD]
    Language                    : English
    Default                     : No
    Forced                      : No

    Text #1
    ID                          : 4
    Format                      : PGS
    Muxing mode                 : zlib
    Codec ID                    : S_HDMV/PGS
    Codec ID/Info               : Picture based subtitle format used on BDs/HD-DVDs
    Duration                    : 1 h 42 min
    Bit rate                    : 22.5 kb/s
    Count of elements           : 1588
    Stream size                 : 16.5 MiB (0%)
    Title                       : Español-PGS [CinemaniaHDD]
    Language                    : Spanish
    Default                     : No
    Forced                      : No

    Text #2
    ID                          : 5
    Format                      : PGS
    Muxing mode                 : zlib
    Codec ID                    : S_HDMV/PGS
    Codec ID/Info               : Picture based subtitle format used on BDs/HD-DVDs
    Duration                    : 1 h 42 min
    Bit rate                    : 27.2 kb/s
    Count of elements           : 1868
    Stream size                 : 20.1 MiB (0%)
    Title                       : Ingles-PGS [CinemaniaHDD]
    Language                    : English
    Default                     : No
    Forced                      : No

    Text #3
    ID                          : 6
    Format                      : UTF-8
    Codec ID                    : S_TEXT/UTF8
    Codec ID/Info               : UTF-8 Plain Text
    Duration                    : 1 h 22 min
    Bit rate                    : 0 b/s
    Count of elements           : 20
    Stream size                 : 365 Bytes (0%)
    Title                       : Forzados-SRT [CinemaniaHDD]
    Language                    : Spanish
    Default                     : Yes
    Forced                      : Yes

    Text #4
    ID                          : 7
    Format                      : UTF-8
    Codec ID                    : S_TEXT/UTF8
    Codec ID/Info               : UTF-8 Plain Text
    Duration                    : 1 h 42 min
    Bit rate                    : 36 b/s
    Count of elements           : 805
    Stream size                 : 27.7 KiB (0%)
    Title                       : Español-SRT [CinemaniaHDD]
    Language                    : Spanish
    Default                     : No
    Forced                      : No

    Menu
    00:00:00.000                : Chapter 01
    00:05:01.509                : Chapter 02
    00:07:41.752                : Chapter 03
    00:11:57.049                : Chapter 04
    00:16:22.272                : Chapter 05
    00:18:50.087                : Chapter 06
    00:22:41.693                : Chapter 07
    00:25:57.138                : Chapter 08
    00:29:32.228                : Chapter 09
    00:32:35.411                : Chapter 10
    00:35:11.275                : Chapter 11
    00:38:26.012                : Chapter 12
    00:42:37.054                : Chapter 13
    00:47:39.606                : Chapter 14
    00:51:11.777                : Chapter 15
    00:54:11.915                : Chapter 16
    00:56:13.286                : Chapter 17
    01:00:12.400                : Chapter 18
    01:05:12.408                : Chapter 19
    01:10:27.431                : Chapter 20
    01:12:50.949                : Chapter 21
    01:15:27.147                : Chapter 22
    01:18:26.159                : Chapter 23
    01:19:40.317                : Chapter 24
    01:21:25.964                : Chapter 25
    01:26:30.226                : Chapter 26
    01:32:53.401                : Chapter 27
    01:37:01.649                : Chapter 28

  • Peso: 25.8 GiB

Sinopsis

Descargar Nunca me abandones (2010) REMUX 1080p Latino. Ruth, Kathy y Tommy pasan su infancia juntos en el internado inglés de Hailsham y son inseparables. Sin embargo, a medida que van creciendo tienen que afrontar los sentimientos que van germinando en su interior: Tommy y Ruth se convierten en pareja, pero Kathy también está enamorada de Tommy. Pero además, hay un secreto sobre su futuro que descubrirán en el internado, algo que afectará de forma directa a su destino y su vida adulta.

Disponible Solo Para VIP!!!

Ficha técnica

Video trailer de la película

Enlaces de descarga

Rip de Bluray

Descargar Nunca me abandones (2010) REMUX 1080p Latino


Aportes de DPeliculasHDmega la pass es:dpeliculashdmega.org Aportes de CinemaniaHD la pass es:cinemaniahdd.com
Guardado en : Ciencia ficción , Drama , Remux , Romance

Películas relacionadas

descargar Nunca me abandones (2010) REMUX 1080p Latino Full 1080p 1080p gratis, Nunca me abandones (2010) REMUX 1080p Latino Full 1080p mega 1 link, Nunca me abandones (2010) REMUX 1080p Latino Full 1080p pelicula completa, descargar Nunca me abandones (2010) REMUX 1080p Latino Full 1080p gratis en mega.

Nunca me abandones (2010) REMUX 1080p Latino pelicula full hd, Nunca me abandones (2010) REMUX 1080p Latino mega latino, Nunca me abandones (2010) REMUX 1080p Latino 4k latino, Nunca me abandones (2010) REMUX 1080p Latino pelicula completa, Nunca me abandones (2010) REMUX 1080p Latino descargar gratis, descargar Nunca me abandones (2010) REMUX 1080p Latino pelicula latino, Nunca me abandones (2010) REMUX 1080p Latino 1 link mega, Nunca me abandones (2010) REMUX 1080p Latino 1 link google drive, Nunca me abandones (2010) REMUX 1080p Latino hd 1080p latino.
Comentarios 0