×

¿Problemas para descargar con Mozilla, EDGE? Deshabilita la opción "Abrir vinculos en una pestaña nueva" tal como lo muestra ésta imagen.

Never Die Alone (2004) REMUX 1080p Latino – CMHDD

159 vistas

Información de Never Die Alone (2004) REMUX 1080p Latino – CMHDD

Datos de la película

  • Calidad: Full 1080p
  • Audio: Español Latino AC3 2.0 BLURAY - Ingles DTS 5.1 BLURAY
  • Subtitulos: Español Latino PGS
  • Resolución: 1920x1080p
  • Formato: MKV
  • Codec: H.264
  • Encoder: Dracarys
  • Mediainfo: Clic para Mostrar Datos Ver
  • Format                      : Matroska
    Format version              : Version 4
    File size                   : 22.3 GiB
    Duration                    : 1 h 28 min
    Overall bit rate mode       : Variable
    Overall bit rate            : 36.1 Mb/s
    Movie name                  : Never Die Alone (2004) REMUX 1080p Latino - CMHDD
    Encoded date                : UTC 2021-07-12 17:42:39
    Writing application         : mkvmerge v56.1.0 ('My Friend') 64-bit
    Writing library             : libebml v1.4.2 + libmatroska v1.6.4
    Cover                       : Yes
    Attachments                 : cover.jpg

    Video
    ID                          : 1
    ID in the original source m : 4113 (0x1011)
    Format                      : AVC
    Format/Info                 : Advanced Video Codec
    Format profile              : High@L4.1
    Format settings             : CABAC / 4 Ref Frames
    Format settings, CABAC      : Yes
    Format settings, Reference  : 4 frames
    Codec ID                    : V_MPEG4/ISO/AVC
    Duration                    : 1 h 28 min
    Bit rate mode               : Variable
    Bit rate                    : 31.4 Mb/s
    Maximum bit rate            : 34.5 Mb/s
    Width                       : 1 920 pixels
    Height                      : 1 080 pixels
    Display aspect ratio        : 16:9
    Frame rate mode             : Constant
    Frame rate                  : 23.976 (24000/1001) FPS
    Color space                 : YUV
    Chroma subsampling          : 4:2:0
    Bit depth                   : 8 bits
    Scan type                   : Progressive
    Bits/(Pixel*Frame)          : 0.632
    Stream size                 : 19.4 GiB (87%)
    Default                     : Yes
    Forced                      : No
    Original source medium      : Blu-ray

    Audio #1
    ID                          : 2
    ID in the original source m : 4352 (0x1100)
    Format                      : DTS XLL
    Format/Info                 : Digital Theater Systems
    Commercial name             : DTS-HD Master Audio
    Codec ID                    : A_DTS
    Duration                    : 1 h 28 min
    Bit rate mode               : Variable
    Bit rate                    : 4 173 kb/s
    Channel(s)                  : 6 channels
    Channel layout              : C L R Ls Rs LFE
    Sampling rate               : 48.0 kHz
    Frame rate                  : 93.750 FPS (512 SPF)
    Bit depth                   : 24 bits
    Compression mode            : Lossless
    Stream size                 : 2.58 GiB (12%)
    Language                    : English
    Default                     : No
    Forced                      : No
    Original source medium      : Blu-ray

    Audio #2
    ID                          : 3
    ID in the original source m : 4353 (0x1101)
    Format                      : AC-3
    Format/Info                 : Audio Coding 3
    Commercial name             : Dolby Digital
    Codec ID                    : A_AC3
    Duration                    : 1 h 28 min
    Bit rate mode               : Constant
    Bit rate                    : 224 kb/s
    Channel(s)                  : 2 channels
    Channel layout              : L R
    Sampling rate               : 48.0 kHz
    Frame rate                  : 31.250 FPS (1536 SPF)
    Compression mode            : Lossy
    Stream size                 : 142 MiB (1%)
    Language                    : Spanish
    Service kind                : Complete Main
    Default                     : Yes
    Forced                      : No
    Original source medium      : Blu-ray

    Audio #3
    ID                          : 4
    ID in the original source m : 4355 (0x1103)
    Format                      : AC-3
    Format/Info                 : Audio Coding 3
    Commercial name             : Dolby Digital
    Codec ID                    : A_AC3
    Duration                    : 1 h 28 min
    Bit rate mode               : Constant
    Bit rate                    : 224 kb/s
    Channel(s)                  : 2 channels
    Channel layout              : L R
    Sampling rate               : 48.0 kHz
    Frame rate                  : 31.250 FPS (1536 SPF)
    Compression mode            : Lossy
    Stream size                 : 142 MiB (1%)
    Language                    : English
    Service kind                : Complete Main
    Default                     : No
    Forced                      : No
    Original source medium      : Blu-ray

    Text
    ID                          : 5
    ID in the original source m : 4609 (0x1201)
    Format                      : PGS
    Muxing mode                 : zlib
    Codec ID                    : S_HDMV/PGS
    Codec ID/Info               : Picture based subtitle format used on BDs/HD-DVDs
    Duration                    : 1 h 27 min
    Bit rate                    : 29.3 kb/s
    Count of elements           : 1554
    Stream size                 : 18.4 MiB (0%)
    Language                    : Spanish
    Default                     : No
    Forced                      : No
    Original source medium      : Blu-ray

    Menu
    00:00:00.000                : Chapter 01
    00:01:29.798                : Chapter 02
    00:06:17.543                : Chapter 03
    00:12:57.902                : Chapter 04
    00:16:32.241                : Chapter 05
    00:22:33.602                : Chapter 06
    00:26:39.639                : Chapter 07
    00:35:05.103                : Chapter 08
    00:38:56.584                : Chapter 09
    00:44:38.342                : Chapter 10
    00:46:38.796                : Chapter 11
    00:51:12.444                : Chapter 12
    00:54:08.536                : Chapter 13
    01:02:06.055                : Chapter 14
    01:06:26.649                : Chapter 15
    01:09:28.455                : Chapter 16
    01:14:52.446                : Chapter 17
    01:18:54.730                : Chapter 18
    01:20:31.910                : Chapter 19
    01:22:21.645                : Chapter 20

  • Peso: 22.3 GiB

Sinopsis

King David (DMX) es un antiguo capo de la droga que regresa a su hogar natal para buscar la redención, pero encuentra una muerte violenta a manos de otro rival. Sus últimos momentos los pasará con Paul (David Arquette), un aspirante a periodista que conocerá a King David por unos minutos pero cuyo encuentro le marcará profundamente, recibiendo de King una cinta donde le explica su historia en ese mundo de crímenes y violencia.

Ficha técnica

Video trailer de la película

Enlaces de descarga

Rip de Bluray

Descargar Never Die Alone (2004) REMUX 1080p Latino – CMHDD


Aportes de DPeliculasHDmega la pass es:dpeliculashdmega.org Aportes de CinemaniaHD la pass es:cinemaniahdd.com
Guardado en : Acción , Crimen , Drama , Suspenso

Películas relacionadas

  • Togo (2022) NF WEB-DL 1080p Latino

    Togo (2022) NF WEB-DL 1080p Latino

    2022
    Togo (2022) NF WEB-DL 1080p Latino

    1h 35m 2022

    Descargar Togo (2022) NF WEB-DL 1080p Latino. Los narcos de poca monta están copando las calles de Montevideo...

    Director: Adrián Caetano

    Género: Crimen

    Actores: Tito Prieto

  • El Ultimo Juego (2021) WEB-DL 1080p Latino

    El Ultimo Juego (2021) WEB-DL 1080p Latino

    2021
    El Ultimo Juego (2021) WEB-DL 1080p Latino

    1h 21m 2021

    Descargar El Ultimo Juego (2021) WEB-DL 1080p Latino. 6 extraños se despiertan dentro de una habitación...

    Director: John David Moffat IV

    Género: Drama

    Actores: Yasmin Irvine

  • DC Liga De Supermascotas (2022) HD 1080p Latino

    DC Liga De Supermascotas (2022) HD 1080p Latino

    2022
    DC Liga De Supermascotas (2022) HD 1080p Latino

    1h 45m 2022

    Descargar DC Liga De Supermascotas (2022) HD 1080p Latino. Krypto el Superperro y Superman son amigos...

    Director: Sam Levine

    Género: Acción

    Actores: Yvette Nicole Brown

descargar Never Die Alone (2004) REMUX 1080p Latino – CMHDD Full 1080p 1080p gratis, Never Die Alone (2004) REMUX 1080p Latino – CMHDD Full 1080p mega 1 link, Never Die Alone (2004) REMUX 1080p Latino – CMHDD Full 1080p pelicula completa, descargar Never Die Alone (2004) REMUX 1080p Latino – CMHDD Full 1080p gratis en mega.

Never Die Alone (2004) REMUX 1080p Latino – CMHDD pelicula full hd, Never Die Alone (2004) REMUX 1080p Latino – CMHDD mega latino, Never Die Alone (2004) REMUX 1080p Latino – CMHDD 4k latino, Never Die Alone (2004) REMUX 1080p Latino – CMHDD pelicula completa, Never Die Alone (2004) REMUX 1080p Latino – CMHDD descargar gratis, descargar Never Die Alone (2004) REMUX 1080p Latino – CMHDD pelicula latino, Never Die Alone (2004) REMUX 1080p Latino – CMHDD 1 link mega, Never Die Alone (2004) REMUX 1080p Latino – CMHDD 1 link google drive, Never Die Alone (2004) REMUX 1080p Latino – CMHDD hd 1080p latino.