Nerve, un juego sin reglas (2016) Full 1080p Latino

1.335 vistas
1 estrella2 estrellas3 estrellas4 estrellas5 estrellas (1 votos, promedio: 5,00 de 5)
Cargando…

Información de Nerve, un juego sin reglas (2016) Full 1080p Latino

Datos de la película

  • Calidad: Full 1080p
  • Audio: Español Latino DTS 5.1 BLURAY - Ingles DTS 5.1 BLURAY
  • Subtitulos: Español Latino PGS - Ingles PGS
  • Resolución: 1920X1080p
  • Formato: MKV
  • Codec: H.264
  • Encoder: Dracarys
  • Mediainfo: Clic para Mostrar Datos Ver
  • Format                                   : Matroska
    Format version                           : Version 4 / Version 2
    File size                                : 5.08 GiB
    Duration                                 : 1 h 36 min
    Overall bit rate                         : 7 546 kb/s
    Movie name                               : CinemaniaHDD.com
    Encoded date                             : UTC 2018-01-18 00:33:57 / UTC 2017-12-22T12:22:08Z
    Writing application                      : mkvmerge v15.0.0 ('Duel with the Devil') 64-bit
    Writing library                          : libebml v1.3.5 + libmatroska v1.4.5 / Lavf57.7.2

    Video
    ID                                       : 1
    Format                                   : AVC
    Format/Info                              : Advanced Video Codec
    Format profile                           : High@L4.1
    Format settings                          : CABAC / 4 Ref Frames
    Format settings, CABAC                   : Yes
    Format settings, RefFrames               : 4 frames
    Codec ID                                 : V_MPEG4/ISO/AVC
    Duration                                 : 1 h 36 min
    Bit rate                                 : 5 119 kb/s
    Width                                    : 1 920 pixels
    Height                                   : 1 080 pixels
    Display aspect ratio                     : 16:9
    Frame rate mode                          : Constant
    Frame rate                               : 23.976 (24000/1001) FPS
    Color space                              : YUV
    Chroma subsampling                       : 4:2:0
    Bit depth                                : 8 bits
    Scan type                                : Progressive
    Bits/(Pixel*Frame)                       : 0.103
    Stream size                              : 3.44 GiB (68%)
    Title                                    : Nerve, un juego sin reglas (2016) Full 1080p Latino
    Writing library                          : x264 core 148 r2708 86b7198
    Encoding settings                        : cabac=1 / ref=4 / deblock=1:0:0 / analyse=0x3:0x133 / me=esa / subme=10 / psy=1 / psy_rd=1.00:0.00 / mixed_ref=1 / me_range=24 / chroma_me=1 / trellis=2 / 8x8dct=1 / cqm=0 / deadzone=21,11 / fast_pskip=1 / chroma_qp_offset=-2 / threads=34 / lookahead_threads=5 / sliced_threads=0 / nr=0 / decimate=1 / interlaced=0 / bluray_compat=0 / constrained_intra=0 / bframes=8 / b_pyramid=2 / b_adapt=2 / b_bias=0 / direct=3 / weightb=1 / open_gop=0 / weightp=2 / keyint=240 / keyint_min=24 / scenecut=40 / intra_refresh=0 / rc_lookahead=60 / rc=crf / mbtree=1 / crf=20.0 / qcomp=0.60 / qpmin=0 / qpmax=69 / qpstep=4 / vbv_maxrate=62500 / vbv_bufsize=78125 / crf_max=0.0 / nal_hrd=none / filler=0 / ip_ratio=1.40 / aq=1:1.00
    Language                                 : English
    Default                                  : Yes
    Forced                                   : No
    Color range                              : Limited
    Color primaries                          : BT.709
    Transfer characteristics                 : BT.709
    Matrix coefficients                      : BT.709
    Statistics Tags Issue                    : mkvmerge v15.0.0 ('Duel with the Devil') 64-bit 2018-01-18 00:33:57 / mkvmerge v15.0.0 ('Duel with the Devil') 64-bit 2018-01-18 00:33:57 / UTC 2017-12-22T12:22:08Z
    FromStats_BitRate                        : 5238094
    FromStats_Duration                       : 01:36:18.690000000
    FromStats_FrameCount                     : 138550
    FromStats_StreamSize                     : 3783665381

    Audio #1
    ID                                       : 2
    Format                                   : DTS
    Format/Info                              : Digital Theater Systems
    Mode                                     : 16
    Format settings, Endianness              : Big
    Codec ID                                 : A_DTS
    Duration                                 : 1 h 36 min
    Bit rate mode                            : Constant
    Bit rate                                 : 768 kb/s
    Channel(s)                               : 6 channels
    Channel positions                        : Front: L C R, Side: L R, LFE
    Sampling rate                            : 48.0 kHz
    Frame rate                               : 93.750 FPS (512 SPF)
    Bit depth                                : 24 bits
    Compression mode                         : Lossy
    Stream size                              : 529 MiB (10%)
    Language                                 : Spanish
    Default                                  : Yes
    Forced                                   : No
    Statistics Tags Issue                    : mkvmerge v15.0.0 ('Duel with the Devil') 64-bit 2018-01-18 00:33:57 / mkvmerge v15.0.0 ('Duel with the Devil') 64-bit 2018-01-18 00:33:57 / UTC 2017-12-22T12:22:08Z
    FromStats_BitRate                        : 768000
    FromStats_Duration                       : 01:36:18.656000000
    FromStats_FrameCount                     : 541749
    FromStats_StreamSize                     : 554750976

    Audio #2
    ID                                       : 3
    Format                                   : DTS
    Format/Info                              : Digital Theater Systems
    Mode                                     : 16
    Format settings, Endianness              : Big
    Codec ID                                 : A_DTS
    Duration                                 : 1 h 36 min
    Bit rate mode                            : Constant
    Bit rate                                 : 1 509 kb/s
    Channel(s)                               : 6 channels
    Channel positions                        : Front: L C R, Side: L R, LFE
    Sampling rate                            : 48.0 kHz
    Frame rate                               : 93.750 FPS (512 SPF)
    Bit depth                                : 24 bits
    Compression mode                         : Lossy
    Stream size                              : 1.02 GiB (20%)
    Language                                 : English
    Default                                  : No
    Forced                                   : No
    Statistics Tags Issue                    : mkvmerge v15.0.0 ('Duel with the Devil') 64-bit 2018-01-18 00:33:57 / mkvmerge v15.0.0 ('Duel with the Devil') 64-bit 2018-01-18 00:33:57 / UTC 2017-12-22T12:22:08Z
    FromStats_BitRate                        : 1508999
    FromStats_Duration                       : 01:36:18.742000000
    FromStats_FrameCount                     : 541757
    FromStats_StreamSize                     : 1090015084

    Text #1
    ID                                       : 4
    Format                                   : UTF-8
    Codec ID                                 : S_TEXT/UTF8
    Codec ID/Info                            : UTF-8 Plain Text
    Title                                    : Forzados
    Language                                 : Spanish
    Default                                  : Yes
    Forced                                   : Yes
    Statistics Tags Issue                    : mkvmerge v15.0.0 ('Duel with the Devil') 64-bit 2018-01-18 00:33:57 / mkvmerge v15.0.0 ('Duel with the Devil') 64-bit 2018-01-18 00:33:57 / UTC 2017-12-22T12:22:08Z
    FromStats_BitRate                        : 2
    FromStats_Duration                       : 01:26:14.626000000
    FromStats_FrameCount                     : 60
    FromStats_StreamSize                     : 1613

    Text #2
    ID                                       : 5
    Format                                   : PGS
    Muxing mode                              : zlib
    Codec ID                                 : S_HDMV/PGS
    Codec ID/Info                            : Picture based subtitle format used on BDs/HD-DVDs
    Language                                 : English
    Default                                  : No
    Forced                                   : No
    Statistics Tags Issue                    : mkvmerge v15.0.0 ('Duel with the Devil') 64-bit 2018-01-18 00:33:57 / mkvmerge v15.0.0 ('Duel with the Devil') 64-bit 2018-01-18 00:33:57 / UTC 2017-12-22T12:22:08Z
    FromStats_BitRate                        : 34534
    FromStats_Duration                       : 01:26:39.954000000
    FromStats_FrameCount                     : 2136
    FromStats_StreamSize                     : 22447295

    Text #3
    ID                                       : 6
    Format                                   : PGS
    Muxing mode                              : zlib
    Codec ID                                 : S_HDMV/PGS
    Codec ID/Info                            : Picture based subtitle format used on BDs/HD-DVDs
    Language                                 : Spanish
    Default                                  : No
    Forced                                   : No
    Statistics Tags Issue                    : mkvmerge v15.0.0 ('Duel with the Devil') 64-bit 2018-01-18 00:33:57 / mkvmerge v15.0.0 ('Duel with the Devil') 64-bit 2018-01-18 00:33:57 / UTC 2017-12-22T12:22:08Z
    FromStats_BitRate                        : 35484
    FromStats_Duration                       : 01:27:36.720000000
    FromStats_FrameCount                     : 2680
    FromStats_StreamSize                     : 23316324

    Menu
    00:00:00.000                             : :Chapter 1
    00:05:14.189                             : :Chapter 2
    00:13:43.406                             : :Chapter 3
    00:20:40.281                             : :Chapter 4
    00:28:42.346                             : :Chapter 5
    00:33:27.130                             : :Chapter 6
    00:38:34.479                             : :Chapter 7
    00:43:36.447                             : :Chapter 8
    00:49:17.913                             : :Chapter 9
    00:53:07.685                             : :Chapter 10
    00:58:18.620                             : :Chapter 11
    01:05:59.372                             : :Chapter 12
    01:10:17.338                             : :Chapter 13
    01:14:40.643                             : :Chapter 14
    01:19:07.868                             : :Chapter 15
    01:27:20.902                             : :Chapter 16

     

  • Peso: 5.08 GiB

Sinopsis

La trama es una adaptación de la novela de Jeanne Ryan, en donde una joven (Emma Roberts) a punto de ingresar a la universidad decide participar en un juego de verdad o reto a través de internet, donde todos sus pasos y actos son vistos y manipulados por una comunidad anónima de hackers. Ella termina compitiendo junto a un misterioso extraño (Dave Franco), pero el juego comienza a tomar rumbos siniestros y a volverse cada vez más peligroso.

Ficha técnica

Video trailer de la película

Enlaces de descarga

Rip de Bluray

Descargar Nerve, un juego sin reglas (2016) Full 1080p Latino




Aportes de DPeliculasHDmega la pass es:dpeliculashdmega.org Aportes de CinemaniaHD la pass es:cinemaniahdd.com

Películas relacionadas

  • El Justiciero 2 (2018) Full 1080p Latino

    2018
    El Justiciero 2 (2018) Full 1080p Latino

    5.0 2h 0m 2018

    Descargar El Justiciero 2 (2018) Full 1080p Latino, Mega, Google Drive. Robert McCall (Denzel Washington)...

    Director: Donald Sparks

    Género: Acción

    Actores: Wesley Pereira

  • Arrow (2018) Temporada 07 AMZN Web-DL 1080p Latino

    2012
    Arrow (2018) Temporada 07 AMZN Web-DL 1080p Latino

    2.7 0h 42m 2012

    Descargar Arrow Temporada 07 AMZN Web-DL 1080p Latino; Mega, Google Drive. No ha habido escasez de llamadas...

    Director: Marc Guggenheim

    Género: Action & Adventure

    Actores: Stephen Amell

  • El Justiciero 2 (2018) 1080p Latino

    2018
    El Justiciero 2 (2018) 1080p Latino

    2.5 2h 0m 2018

    Descargar El Justiciero 2 (2018) 1080p Latino, Mega, Google Drive. Robert McCall (Denzel Washington)...

    Director: Donald Sparks

    Género: Acción

    Actores: Wesley Pereira

Comentarios 0