×

¿Problemas para descargar con Mozilla, EDGE? Deshabilita la opción "Abrir vinculos en una pestaña nueva" tal como lo muestra ésta imagen.

Nerve (2016) REMUX 1080p Latino – CMHDD

174 vistas

Información de Nerve (2016) REMUX 1080p Latino – CMHDD

Datos de la película

  • Calidad: Full 1080p
  • Audio: Español Latino DTS 5.1 BLURAY - Ingles DTS-HD Master 7.1 BLURAY
  • Subtitulos: Español Latino PGS
  • Resolución: 1920x1080p
  • Formato: MKV
  • Codec: H.264
  • Encoder: Dracarys
  • Mediainfo: Clic para Mostrar Datos Ver
  • Format                      : Matroska
    Format version              : Version 4
    File size                   : 26.5 GiB
    Duration                    : 1 h 36 min
    Overall bit rate mode       : Variable
    Overall bit rate            : 39.3 Mb/s
    Movie name                  : Nerve (2016) REMUX 1080p Latino - CMHDD
    Encoded date                : UTC 2023-08-24 00:01:57
    Writing application         : mkvmerge v47.0.0 ('Black Flag') 64-bit
    Writing library             : libebml v1.3.10 + libmatroska v1.5.2
    Cover                       : Yes
    Attachments                 : cover.jpg

    Video
    ID                          : 1
    Format                      : AVC
    Format/Info                 : Advanced Video Codec
    Format profile              : High@L4.1
    Format settings             : CABAC / 4 Ref Frames
    Format settings, CABAC      : Yes
    Format settings, Reference  : 4 frames
    Codec ID                    : V_MPEG4/ISO/AVC
    Duration                    : 1 h 36 min
    Bit rate mode               : Variable
    Bit rate                    : 32.5 Mb/s
    Maximum bit rate            : 34.5 Mb/s
    Width                       : 1 920 pixels
    Height                      : 1 080 pixels
    Display aspect ratio        : 16:9
    Frame rate mode             : Constant
    Frame rate                  : 23.976 (24000/1001) FPS
    Color space                 : YUV
    Chroma subsampling          : 4:2:0
    Bit depth                   : 8 bits
    Scan type                   : Progressive
    Bits/(Pixel*Frame)          : 0.654
    Stream size                 : 21.9 GiB (83%)
    Default                     : Yes
    Forced                      : No

    Audio #1
    ID                          : 2
    Format                      : DTS XLL X
    Format/Info                 : Digital Theater Systems
    Commercial name             : DTS-HD Master Audio
    Codec ID                    : A_DTS
    Duration                    : 1 h 36 min
    Bit rate mode               : Variable
    Bit rate                    : 6 052 kb/s
    Channel(s)                  : 8 channels
    Channel(s)_Original         : Object Based
    ChannelLayout_Original      : Object Based
    Sampling rate               : 48.0 kHz
    Frame rate                  : 93.750 FPS (512 SPF)
    Bit depth                   : 24 bits
    Stream size                 : 4.07 GiB (15%)
    Language                    : English
    Default                     : No
    Forced                      : No

    Audio #2
    ID                          : 3
    Format                      : DTS
    Format/Info                 : Digital Theater Systems
    Codec ID                    : A_DTS
    Duration                    : 1 h 36 min
    Bit rate mode               : Constant
    Bit rate                    : 768 kb/s
    Channel(s)                  : 6 channels
    Channel layout              : C L R Ls Rs LFE
    Sampling rate               : 48.0 kHz
    Frame rate                  : 93.750 FPS (512 SPF)
    Bit depth                   : 24 bits
    Compression mode            : Lossy
    Stream size                 : 529 MiB (2%)
    Language                    : Spanish
    Default                     : Yes
    Forced                      : No

    Text
    ID                          : 4
    Format                      : PGS
    Muxing mode                 : zlib
    Codec ID                    : S_HDMV/PGS
    Codec ID/Info               : Picture based subtitle format used on BDs/HD-DVDs
    Duration                    : 1 h 27 min
    Bit rate                    : 35.5 kb/s
    Frame rate                  : 0.510 FPS
    Count of elements           : 2680
    Stream size                 : 22.2 MiB (0%)
    Language                    : Spanish
    Default                     : No
    Forced                      : No

    Menu
    00:00:00.000                : en:Capítulo 01
    00:05:14.188                : en:Capítulo 02
    00:13:43.405                : en:Capítulo 03
    00:20:40.238                : en:Capítulo 04
    00:28:42.303                : en:Capítulo 05
    00:33:27.088                : en:Capítulo 06
    00:38:34.437                : en:Capítulo 07
    00:43:36.405                : en:Capítulo 08
    00:49:17.871                : en:Capítulo 09
    00:53:07.642                : en:Capítulo 10
    00:58:18.578                : en:Capítulo 11
    01:05:59.330                : en:Capítulo 12
    01:10:17.338                : en:Capítulo 13
    01:14:40.642                : en:Capítulo 14
    01:19:07.868                : en:Capítulo 15
    01:27:20.860                : en:Capítulo 16

  • Peso: 26.5 GiB

Sinopsis

Vee Delmonico es una joven y tímida estudiante de secundaria que decide apuntarse a Nerve, un provocativo juego online de ‘verdad o acción’ en el que la audiencia observa todo, vota y además comenta. Al principio logra mucho éxito y disfruta la situación, sobre todo gracias a los premios que ofrece el juego. Así, empieza a competir junto a un misterioso extraño (Dave Franco), que será su compañero de equipo. Pero, a medida que sube niveles, Nerve evoluciona y Vee se verá envuelta en un juego cada vez mas peligroso…

Ficha técnica

Video trailer de la película

Enlaces de descarga

Rip de Bluray

Descargar Nerve (2016) REMUX 1080p Latino – CMHDD


Aportes de DPeliculasHDmega la pass es:dpeliculashdmega.org Aportes de CinemaniaHD la pass es:cinemaniahdd.com Aportes recientes:cinemaniahdd.net
Guardado en : Aventura , Crimen , Misterio

Películas relacionadas

descargar Nerve (2016) REMUX 1080p Latino – CMHDD Full 1080p 1080p gratis, Nerve (2016) REMUX 1080p Latino – CMHDD Full 1080p mega 1 link, Nerve (2016) REMUX 1080p Latino – CMHDD Full 1080p pelicula completa, descargar Nerve (2016) REMUX 1080p Latino – CMHDD Full 1080p gratis en mega.

Nerve (2016) REMUX 1080p Latino – CMHDD pelicula full hd, Nerve (2016) REMUX 1080p Latino – CMHDD mega latino, Nerve (2016) REMUX 1080p Latino – CMHDD 4k latino, Nerve (2016) REMUX 1080p Latino – CMHDD pelicula completa, Nerve (2016) REMUX 1080p Latino – CMHDD descargar gratis, descargar Nerve (2016) REMUX 1080p Latino – CMHDD pelicula latino, Nerve (2016) REMUX 1080p Latino – CMHDD 1 link mega, Nerve (2016) REMUX 1080p Latino – CMHDD 1 link google drive, Nerve (2016) REMUX 1080p Latino – CMHDD hd 1080p latino.
Comentarios 0