Neon Genesis Evangelion (1995-1997) Serie Completa REMUX 1080p Latino – CMHDD

40 vistas
1 estrella2 estrellas3 estrellas4 estrellas5 estrellas (1 votos, promedio: 5,00 de 5)
Cargando...

Información de Neon Genesis Evangelion (1995-1997) Serie Completa REMUX 1080p Latino – CMHDD

Datos de la película

  • Calidad: Full 1080p
  • Audio: Se especifica abajo de la Sinopsis
  • Subtitulos: Español Latino PGS
  • Resolución: 1920x1080p
  • Formato: MKV
  • Codec: H.264
  • Encoder: Dracarys
  • Mediainfo: Clic para Mostrar Datos Ver
  • Format                      : Matroska
    Format version              : Version 4
    File size                   : 6.83 GiB
    Duration                    : 23 min 36 s
    Overall bit rate mode       : Variable
    Overall bit rate            : 41.4 Mb/s
    Movie name                  : Neon Genesis Evangelion (1995-1997) E01 REMUX 1080p Latino - CMHDD
    Encoded date                : UTC 2021-04-20 18:15:31
    Writing application         : mkvmerge v51.0.0 ('I Wish') 64-bit
    Writing library             : libebml v1.4.0 + libmatroska v1.6.2

    Video
    ID                          : 1
    Format                      : AVC
    Format/Info                 : Advanced Video Codec
    Format profile              : High@L4.1
    Format settings             : CABAC / 4 Ref Frames
    Format settings, CABAC      : Yes
    Format settings, Reference  : 4 frames
    Codec ID                    : V_MPEG4/ISO/AVC
    Duration                    : 23 min 21 s
    Bit rate mode               : Variable
    Bit rate                    : 36.1 Mb/s
    Maximum bit rate            : 40.0 Mb/s
    Width                       : 1 920 pixels
    Height                      : 1 080 pixels
    Display aspect ratio        : 16:9
    Frame rate mode             : Constant
    Frame rate                  : 23.976 (24000/1001) FPS
    Color space                 : YUV
    Chroma subsampling          : 4:2:0
    Bit depth                   : 8 bits
    Scan type                   : Progressive
    Bits/(Pixel*Frame)          : 0.726
    Stream size                 : 5.89 GiB (86%)
    Default                     : Yes
    Forced                      : No
    Color range                 : Limited
    Color primaries             : BT.709
    Transfer characteristics    : BT.709
    Matrix coefficients         : BT.709

    Audio #1
    ID                          : 2
    Format                      : PCM
    Format settings             : Little / Signed
    Codec ID                    : A_PCM/INT/LIT
    Duration                    : 23 min 21 s
    Bit rate mode               : Constant
    Bit rate                    : 4 608 kb/s
    Channel(s)                  : 6 channels
    Sampling rate               : 48.0 kHz
    Frame rate                  : 200.000 FPS (240 SPF)
    Bit depth                   : 16 bits
    Stream size                 : 770 MiB (11%)
    Language                    : Japanese
    Default                     : No
    Forced                      : No

    Audio #2
    ID                          : 3
    Format                      : AC-3
    Format/Info                 : Audio Coding 3
    Commercial name             : Dolby Digital
    Codec ID                    : A_AC3
    Duration                    : 23 min 20 s
    Bit rate mode               : Constant
    Bit rate                    : 384 kb/s
    Channel(s)                  : 6 channels
    Channel layout              : L R C LFE Ls Rs
    Sampling rate               : 48.0 kHz
    Frame rate                  : 31.250 FPS (1536 SPF)
    Compression mode            : Lossy
    Stream size                 : 64.1 MiB (1%)
    Language                    : English
    Service kind                : Complete Main
    Default                     : No
    Forced                      : No

    Audio #3
    ID                          : 4
    Format                      : AC-3
    Format/Info                 : Audio Coding 3
    Commercial name             : Dolby Digital
    Codec ID                    : A_AC3
    Duration                    : 23 min 21 s
    Bit rate mode               : Constant
    Bit rate                    : 384 kb/s
    Channel(s)                  : 2 channels
    Channel layout              : L R
    Sampling rate               : 48.0 kHz
    Frame rate                  : 31.250 FPS (1536 SPF)
    Compression mode            : Lossy
    Stream size                 : 64.2 MiB (1%)
    Language                    : Spanish
    Service kind                : Complete Main
    Default                     : Yes
    Forced                      : No

    Audio #4
    ID                          : 5
    Format                      : AC-3
    Format/Info                 : Audio Coding 3
    Commercial name             : Dolby Digital
    Codec ID                    : A_AC3
    Duration                    : 23 min 36 s
    Bit rate mode               : Constant
    Bit rate                    : 384 kb/s
    Channel(s)                  : 6 channels
    Channel layout              : L R C LFE Ls Rs
    Sampling rate               : 48.0 kHz
    Frame rate                  : 31.250 FPS (1536 SPF)
    Compression mode            : Lossy
    Stream size                 : 64.8 MiB (1%)
    Language                    : Spanish
    Service kind                : Complete Main
    Default                     : No
    Forced                      : No

    Text
    ID                          : 6
    Format                      : PGS
    Muxing mode                 : zlib
    Codec ID                    : S_HDMV/PGS
    Codec ID/Info               : Picture based subtitle format used on BDs/HD-DVDs
    Duration                    : 23 min 18 s
    Bit rate                    : 42.3 kb/s
    Count of elements           : 648
    Stream size                 : 7.04 MiB (0%)
    Language                    : Spanish
    Default                     : No
    Forced                      : No

  • Peso: 184 GiB

Sinopsis

Han pasado ya 15 años desde que se contactó en el 2000 con unos misteriosos seres conocidos como ángeles. Como consecuencia de esto, se produjo el llamado Segundo Impacto, un cataclismo a escala mundial causado por una explosión en la Antártida que redujo a la mitad la población humana en la Tierra. Para prevenir futuros ataques, la ONU estableció en Tokio-3 la organización NERV que ha ido desarrollando Evangelions, enormes criaturas biomecánicas pilotados por adolescentes que son lo único que puede parar a los ángeles.

Actualmentw nos encontramos en 2015 centrándonos en un joven, Shinji Ikari. Con la esperanza de ganar el afecto de su padre, el dirigente de NERV, el adolescente acepta sus órdenes y decide pilotar la unidad 01 de los Evangelion (Eva-01) para acabar con el Tercer Ángel. Y a partir de ese momento, la vida de Shinji cambia para siempre al establecerse en la ciudad e intentar convertirse en un piloto de élite.

Neon Genesis Evangelion es un anime original creada por el estudio Gainax5 y dirigida por Hideaki Anno. Tuvo una única temporada compuesta por 26 episodios que se estrenaron en la cadena japonesa TV Tokyo el 4 de octubre de 1995 y finalizó el 27 de marzo de 1996.

 

Latino: Doblaje Original AC3 2.0 Segundo Doblaje AC3 5.1 – Japones PMC 5.1 – Ingles: AC3 5.1

Ficha técnica

  • Titulo original: 新世紀エヴァンゲリオン
  • Fecha de lanzamiento: 04-10-1995 (JP)
  • Género: Animación, Drama, Sci-Fi & Fantasy
  • Puntuación: 5.0 1 votos
  • Duración:
    0h 25m

Video trailer de la película

Enlaces de descarga

Rip de Bluray

Descargar Neon Genesis Evangelion (1995-1997) Serie Completa REMUX 1080p Latino – CMHDD


Aportes de DPeliculasHDmega la pass es:dpeliculashdmega.org Aportes de CinemaniaHD la pass es:cinemaniahdd.com
Guardado en : Animación , Drama , Sci-Fi & Fantasy

Películas relacionadas

Neon Genesis Evangelion (1995-1997) Serie Completa REMUX 1080p Latino – CMHDD pelicula full hd, Neon Genesis Evangelion (1995-1997) Serie Completa REMUX 1080p Latino – CMHDD mega latino, Neon Genesis Evangelion (1995-1997) Serie Completa REMUX 1080p Latino – CMHDD 4k latino, Neon Genesis Evangelion (1995-1997) Serie Completa REMUX 1080p Latino – CMHDD pelicula completa, Neon Genesis Evangelion (1995-1997) Serie Completa REMUX 1080p Latino – CMHDD descargar gratis, descargar Neon Genesis Evangelion (1995-1997) Serie Completa REMUX 1080p Latino – CMHDD pelicula latino, Neon Genesis Evangelion (1995-1997) Serie Completa REMUX 1080p Latino – CMHDD 1 link mega, Neon Genesis Evangelion (1995-1997) Serie Completa REMUX 1080p Latino – CMHDD 1 link google drive, Neon Genesis Evangelion (1995-1997) Serie Completa REMUX 1080p Latino – CMHDD hd 1080p latino.
Comentarios 0