×

¿Problemas para descargar con Mozilla, EDGE? Deshabilita la opción "Abrir vinculos en una pestaña nueva" tal como lo muestra ésta imagen.

Negra Navidad (2019) REMUX 1080p Latino

337 vistas

Información de Negra Navidad (2019) REMUX 1080p Latino

Datos de la película

  • Calidad: Full 1080p
  • Audio: Español Latino DTS 5.1 BLURAY - Ingles DTS-HD 5.1 BLURAY
  • Subtitulos: Español Latino PGS - Ingles PGS
  • Resolución: 1920x1080p
  • Formato: MKV
  • Codec: H.264
  • Encoder: CinefiloCool
  • Mediainfo: Clic para Mostrar Datos Ver
  • Negra Navidad (2019) REMUX 1080p Latino-CMHDD.mkv
    Format                      : Matroska
    Format version              : Version 4
    File size                   : 23.2 GiB
    Duration                    : 1 h 32 min
    Overall bit rate mode       : Variable
    Overall bit rate            : 36.0 Mb/s
    Movie name                  : Black Christmas (2019) CinemaniaHDD.Net
    Encoded date                : UTC 2020-03-12 18:48:38
    Writing application         : mkvmerge v42.0.0 ('Overtime') 64-bit
    Writing library             : libebml v1.3.10 + libmatroska v1.5.2
    Attachments                 : CINEMANIAHD.png

    Video
    ID                          : 1
    Format                      : AVC
    Format/Info                 : Advanced Video Codec
    Format profile              : High@L4.1
    Format settings             : CABAC / 4 Ref Frames
    Format settings, CABAC      : Yes
    Format settings, ReFrames   : 4 frames
    Format settings, GOP        : M=3, N=12
    Codec ID                    : V_MPEG4/ISO/AVC
    Duration                    : 1 h 32 min
    Bit rate mode               : Variable
    Bit rate                    : 31.8 Mb/s
    Maximum bit rate            : 35.0 Mb/s
    Width                       : 1 920 pixels
    Height                      : 1 080 pixels
    Display aspect ratio        : 16:9
    Frame rate mode             : Constant
    Frame rate                  : 23.976 (24000/1001) FPS
    Color space                 : YUV
    Chroma subsampling          : 4:2:0
    Bit depth                   : 8 bits
    Scan type                   : Progressive
    Bits/(Pixel*Frame)          : 0.640
    Stream size                 : 20.5 GiB (88%)
    Title                       : Full HD1080p [REMUX]
    Default                     : Yes
    Forced                      : Yes

    Audio #1
    ID                          : 2
    Format                      : DTS
    Format/Info                 : Digital Theater Systems
    Codec ID                    : A_DTS
    Duration                    : 1 h 32 min
    Bit rate mode               : Constant
    Bit rate                    : 768 kb/s
    Channel(s)                  : 6 channels
    Channel layout              : C L R Ls Rs LFE
    Sampling rate               : 48.0 kHz
    Frame rate                  : 93.750 FPS (512 SPF)
    Bit depth                   : 24 bits
    Compression mode            : Lossy
    Stream size                 : 506 MiB (2%)
    Title                       : DTS_5.1_Bluray_Esp
    Language                    : Spanish
    Default                     : Yes
    Forced                      : Yes

    Audio #2
    ID                          : 3
    Format                      : DTS XLL
    Format/Info                 : Digital Theater Systems
    Commercial name             : DTS-HD Master Audio
    Codec ID                    : A_DTS
    Duration                    : 1 h 32 min
    Bit rate mode               : Variable
    Bit rate                    : 3 379 kb/s
    Channel(s)                  : 6 channels
    Channel layout              : C L R Ls Rs LFE
    Sampling rate               : 48.0 kHz
    Frame rate                  : 93.750 FPS (512 SPF)
    Bit depth                   : 24 bits
    Compression mode            : Lossless
    Stream size                 : 2.18 GiB (9%)
    Title                       : DTS-HD_5.1_Bluray_Eng
    Language                    : English
    Default                     : No
    Forced                      : No

    Text #1
    ID                          : 4
    Format                      : PGS
    Muxing mode                 : zlib
    Codec ID                    : S_HDMV/PGS
    Codec ID/Info               : Picture based subtitle format used on BDs/HD-DVDs
    Duration                    : 51 min 38 s
    Bit rate                    : 465 b/s
    Count of elements           : 24
    Stream size                 : 176 KiB (0%)
    Title                       : Sub_Forzados [PGS]
    Language                    : Spanish
    Default                     : Yes
    Forced                      : Yes

    Text #2
    ID                          : 5
    Format                      : PGS
    Muxing mode                 : zlib
    Codec ID                    : S_HDMV/PGS
    Codec ID/Info               : Picture based subtitle format used on BDs/HD-DVDs
    Duration                    : 1 h 31 min
    Bit rate                    : 31.7 kb/s
    Count of elements           : 2169
    Stream size                 : 20.7 MiB (0%)
    Title                       : Sub_Esp [PGS]
    Language                    : Spanish
    Default                     : No
    Forced                      : No

    Text #3
    ID                          : 6
    Format                      : PGS
    Muxing mode                 : zlib
    Codec ID                    : S_HDMV/PGS
    Codec ID/Info               : Picture based subtitle format used on BDs/HD-DVDs
    Duration                    : 1 h 26 min
    Bit rate                    : 42.6 kb/s
    Count of elements           : 2682
    Stream size                 : 26.4 MiB (0%)
    Title                       : Sub_Eng [PGS]
    Language                    : English
    Default                     : No
    Forced                      : No

    Text #4
    ID                          : 7
    Format                      : UTF-8
    Codec ID                    : S_TEXT/UTF8
    Codec ID/Info               : UTF-8 Plain Text
    Duration                    : 1 h 24 min
    Bit rate                    : 0 b/s
    Count of elements           : 11
    Stream size                 : 272 Bytes (0%)
    Title                       : Sub_Forzados
    Language                    : Spanish
    Default                     : No
    Forced                      : No

    Text #5
    ID                          : 8
    Format                      : UTF-8
    Codec ID                    : S_TEXT/UTF8
    Codec ID/Info               : UTF-8 Plain Text
    Duration                    : 1 h 27 min
    Bit rate                    : 53 b/s
    Count of elements           : 1072
    Stream size                 : 34.2 KiB (0%)
    Title                       : Sub_Esp
    Language                    : Spanish
    Default                     : No
    Forced                      : No

    Menu
    00:00:00.000                : en:Chapter 01
    00:06:54.247                : en:Chapter 02
    00:11:31.691                : en:Chapter 03
    00:13:54.208                : en:Chapter 04
    00:18:01.080                : en:Chapter 05
    00:23:23.652                : en:Chapter 06
    00:28:21.116                : en:Chapter 07
    00:33:51.487                : en:Chapter 08
    00:37:07.516                : en:Chapter 09
    00:41:20.436                : en:Chapter 10
    00:47:05.656                : en:Chapter 11
    00:53:29.539                : en:Chapter 12
    00:58:13.156                : en:Chapter 13
    01:03:12.663                : en:Chapter 14
    01:06:28.442                : en:Chapter 15
    01:10:02.573                : en:Chapter 16
    01:14:34.052                : en:Chapter 17
    01:19:08.034                : en:Chapter 18
    01:21:26.506                : en:Chapter 19
    01:26:14.794                : en:Chapter 20

  • Peso: 23.2 GiB

Sinopsis

Descargar Negra Navidad (2019) REMUX 1080p Latino. Remake del clásico de terror de 1974. Es casi fin de año y Hawthorne College se está preparando para las vacaciones. Pero cuando Riley Stone (Imogen Poots) y sus amigas Marty (Lily Donoghue), Kris (Aleyse Shannon) y Jesse (Brittany O’Grady) se alistan para celebrar las fiestas navideñas, un extraño con máscara negra comienza a matar a las mujeres de su sororidad, una por una. Pero, ¿quién es en verdad el asesino? Las jóvenes tendrán que descubrirlo sin imaginar que este podría estar más cerca de lo que piensan…

Ficha técnica

  • Titulo original: Black Christmas
  • Fecha de lanzamiento: 11-12-2019 (New Zealand, United States of America)
  • Director: Sophia Takal
  • Género: Misterio, Remux, Terror

Video trailer de la película

Enlaces de descarga

Rip de Bluray

Descargar Negra Navidad (2019) REMUX 1080p Latino




Aportes de DPeliculasHDmega la pass es:dpeliculashdmega.org Aportes de CinemaniaHD la pass es:cinemaniahdd.com
Guardado en : Misterio , Remux , Terror

Películas relacionadas

  • Wire Room (2022) REMUX 1080p Latino

    Wire Room (2022) REMUX 1080p Latino

    2022
    Wire Room (2022) REMUX 1080p Latino

    1h 37m 2022

    Descargar Wire Room (2022) REMUX 1080p Latino. Mientras está de servicio en la sala de cables, un agente...

    Director: Matt Eskandari

    Género: Acción

    Actores: Texas Battle

  • Alarido (2022) HD 1080p Latino

    Alarido (2022) HD 1080p Latino

    2022
    Alarido (2022) HD 1080p Latino

    1h 29m 2022

    Descargar Alarido (2022) HD 1080p Latino. Una joven madre soltera es cautiva junto con sus dos hijos...

    Director: D.J. Caruso

    Género: HD 1080p

    Actores: Vincent Gallo

  • Alarido (2022) PLACEBO Full HD 1080p Latino

    Alarido (2022) PLACEBO Full HD 1080p Latino

    2022
    Alarido (2022) PLACEBO Full HD 1080p Latino

    1h 29m 2022

    Descargar Alarido (2022) PLACEBO Full HD 1080p Latino. Una joven madre soltera es cautiva junto con sus...

    Director: D.J. Caruso

    Género: FULL 1080p Plateadas

    Actores: Vincent Gallo

  • Alarido (2022) REMUX 1080p Latino

    Alarido (2022) REMUX 1080p Latino

    2022
    Alarido (2022) REMUX 1080p Latino

    1h 29m 2022

    Descargar Alarido (2022) REMUX 1080p Latino. Una joven madre soltera es cautiva junto con sus dos hijos...

    Director: D.J. Caruso

    Género: Remux

    Actores: Vincent Gallo

  • Borrego: Sal Del Camino (2022) REMUX 1080p Latino

    Borrego: Sal Del Camino (2022) REMUX 1080p Latino

    2022
    Borrego: Sal Del Camino (2022) REMUX 1080p Latino

    1h 42m 2022

    Descargar Borrego: Sal Del Camino (2022) REMUX 1080p Latino. Una joven botánica se traslada a un pequeño...

    Director: Jesse Harris

    Género: Crimen

    Actores: Olivia Trujillo

descargar Negra Navidad (2019) REMUX 1080p Latino Full 1080p 1080p gratis, Negra Navidad (2019) REMUX 1080p Latino Full 1080p mega 1 link, Negra Navidad (2019) REMUX 1080p Latino Full 1080p pelicula completa, descargar Negra Navidad (2019) REMUX 1080p Latino Full 1080p gratis en mega.

Negra Navidad (2019) REMUX 1080p Latino pelicula full hd, Negra Navidad (2019) REMUX 1080p Latino mega latino, Negra Navidad (2019) REMUX 1080p Latino 4k latino, Negra Navidad (2019) REMUX 1080p Latino pelicula completa, Negra Navidad (2019) REMUX 1080p Latino descargar gratis, descargar Negra Navidad (2019) REMUX 1080p Latino pelicula latino, Negra Navidad (2019) REMUX 1080p Latino 1 link mega, Negra Navidad (2019) REMUX 1080p Latino 1 link google drive, Negra Navidad (2019) REMUX 1080p Latino hd 1080p latino.
Comentarios 0