×

¿Problemas para descargar con Mozilla, EDGE? Deshabilita la opción "Abrir vinculos en una pestaña nueva" tal como lo muestra ésta imagen.

Need For Speed: La Película (2014) REMUX 1080p Latino

395 vistas

Información de Need For Speed: La Película (2014) REMUX 1080p Latino

Datos de la película

  • Calidad: Full 1080p
  • Audio: Español Latino AC3 5.1 BLURAY - Ingles DTS-HD Master 7.1 BLURAY
  • Subtitulos: Español Latino PGS - Ingles PGS
  • Resolución: 1920x1080p
  • Formato: MKV
  • Codec: H.264
  • Encoder: CinefiloCool
  • Mediainfo: Clic para Mostrar Datos Ver
  • Need For Speed (2014) REMUX 1080p Latino-CMHDD.mkv
    Format                      : Matroska
    Format version              : Version 4
    File size                   : 32.1 GiB
    Duration                    : 2 h 10 min
    Overall bit rate mode       : Variable
    Overall bit rate            : 35.1 Mb/s
    Movie name                  : Need For Speed (2014) CinemaniaHDD.Net
    Encoded date                : UTC 2022-02-01 08:46:22
    Writing application         : mkvmerge v56.1.0 ('My Friend') 64-bit
    Writing library             : libebml v1.4.2 + libmatroska v1.6.4
    Attachments                 : CINEMANIAHD.png

    Video
    ID                          : 1
    Format                      : AVC
    Format/Info                 : Advanced Video Codec
    Format profile              : High@L4.1
    Format settings             : CABAC / 4 Ref Frames
    Format settings, CABAC      : Yes
    Format settings, Reference  : 4 frames
    Codec ID                    : V_MPEG4/ISO/AVC
    Duration                    : 2 h 10 min
    Bit rate mode               : Variable
    Bit rate                    : 29.2 Mb/s
    Maximum bit rate            : 32.0 Mb/s
    Width                       : 1 920 pixels
    Height                      : 1 080 pixels
    Display aspect ratio        : 16:9
    Frame rate mode             : Constant
    Frame rate                  : 23.976 (24000/1001) FPS
    Color space                 : YUV
    Chroma subsampling          : 4:2:0
    Bit depth                   : 8 bits
    Scan type                   : Progressive
    Bits/(Pixel*Frame)          : 0.588
    Stream size                 : 26.7 GiB (83%)
    Title                       : REMUX HD1080p [CinemaniaHDD]
    Language                    : English
    Default                     : Yes
    Forced                      : Yes

    Audio #1
    ID                          : 2
    Format                      : AC-3
    Format/Info                 : Audio Coding 3
    Commercial name             : Dolby Digital
    Codec ID                    : A_AC3
    Duration                    : 2 h 10 min
    Bit rate mode               : Constant
    Bit rate                    : 640 kb/s
    Channel(s)                  : 6 channels
    Channel layout              : L R C LFE Ls Rs
    Sampling rate               : 48.0 kHz
    Frame rate                  : 31.250 FPS (1536 SPF)
    Compression mode            : Lossy
    Stream size                 : 598 MiB (2%)
    Title                       : Español Latino [CinemaniaHDD]
    Language                    : Spanish
    Service kind                : Complete Main
    Default                     : Yes
    Forced                      : Yes

    Audio #2
    ID                          : 3
    Format                      : DTS XLL
    Format/Info                 : Digital Theater Systems
    Commercial name             : DTS-HD Master Audio
    Codec ID                    : A_DTS
    Duration                    : 2 h 10 min
    Bit rate mode               : Variable
    Bit rate                    : 5 228 kb/s
    Channel(s)                  : 8 channels
    Channel layout              : C L R LFE Lb Rb Lss Rss
    Sampling rate               : 48.0 kHz
    Frame rate                  : 93.750 FPS (512 SPF)
    Bit depth                   : 24 bits
    Compression mode            : Lossless
    Stream size                 : 4.77 GiB (15%)
    Title                       : Ingles [CinemaniaHDD]
    Language                    : English
    Default                     : No
    Forced                      : No

    Text #1
    ID                          : 4
    Format                      : PGS
    Muxing mode                 : zlib
    Codec ID                    : S_HDMV/PGS
    Codec ID/Info               : Picture based subtitle format used on BDs/HD-DVDs
    Duration                    : 2 h 9 min
    Bit rate                    : 28.5 kb/s
    Count of elements           : 2654
    Stream size                 : 26.5 MiB (0%)
    Title                       : Español-PGS [CinemaniaHDD]
    Language                    : Spanish
    Default                     : No
    Forced                      : No

    Text #2
    ID                          : 5
    Format                      : PGS
    Muxing mode                 : zlib
    Codec ID                    : S_HDMV/PGS
    Codec ID/Info               : Picture based subtitle format used on BDs/HD-DVDs
    Duration                    : 2 h 2 min
    Bit rate                    : 29.8 kb/s
    Count of elements           : 2734
    Stream size                 : 26.1 MiB (0%)
    Title                       : Ingles-PGS [CinemaniaHDD]
    Language                    : English
    Default                     : No
    Forced                      : No

    Text #3
    ID                          : 6
    Format                      : UTF-8
    Codec ID                    : S_TEXT/UTF8
    Codec ID/Info               : UTF-8 Plain Text
    Duration                    : 2 h 3 min
    Bit rate                    : 0 b/s
    Count of elements           : 22
    Stream size                 : 725 Bytes (0%)
    Title                       : Forzados-SRT [CinemaniaHDD]
    Language                    : Spanish
    Default                     : Yes
    Forced                      : Yes

    Text #4
    ID                          : 7
    Format                      : UTF-8
    Codec ID                    : S_TEXT/UTF8
    Codec ID/Info               : UTF-8 Plain Text
    Duration                    : 2 h 9 min
    Bit rate                    : 46 b/s
    Count of elements           : 1333
    Stream size                 : 44.2 KiB (0%)
    Title                       : Español-SRT [CinemaniaHDD]
    Language                    : Spanish
    Default                     : No
    Forced                      : No

    Menu
    00:00:00.000                : Chapter 01
    00:03:54.734                : Chapter 02
    00:07:49.760                : Chapter 03
    00:14:28.033                : Chapter 04
    00:20:43.533                : Chapter 05
    00:26:18.159                : Chapter 06
    00:28:45.974                : Chapter 07
    00:37:46.472                : Chapter 08
    00:42:07.608                : Chapter 09
    00:50:33.613                : Chapter 10
    00:56:00.482                : Chapter 11
    01:05:09.864                : Chapter 12
    01:12:09.325                : Chapter 13
    01:18:21.029                : Chapter 14
    01:25:07.143                : Chapter 15
    01:32:55.653                : Chapter 16
    01:36:38.083                : Chapter 17
    01:39:49.441                : Chapter 18
    01:49:47.872                : Chapter 19
    01:55:41.684                : Chapter 20
    02:02:22.752                : Chapter 21

  • Peso: 32.1 GiB

Sinopsis

Descargar Need For Speed: La Película (2014) REMUX 1080p Latino. El más famoso de los videojuegos de carreras llega a la gran pantalla para dejar a los más fanáticos boquiabiertos. Need for Speed cuenta la historia de un experto en automovilismo (Aaron Paul), el cual tiene un garage en dónde transforma coches para hacerlos más rápidos de lo que son para poder competir en carreras ilegales. Entró en la cárcel por un delito que no había cometido, justo cuando su mejor amigo muere en una carrera, y ahora sale de allí para vengarse.

Disponible Solo Para VIP!!!

Ficha técnica

Video trailer de la película

Enlaces de descarga

Rip de Bluray

Descargar Need For Speed: La Película (2014) REMUX 1080p Latino


Aportes de DPeliculasHDmega la pass es:dpeliculashdmega.org Aportes de CinemaniaHD la pass es:cinemaniahdd.com
Guardado en : Acción , Crimen , Drama , Remux , Suspenso

Películas relacionadas

  • Paradise Highway (2022) HD 1080p Latino

    Paradise Highway (2022) HD 1080p Latino

    2022
    Paradise Highway (2022) HD 1080p Latino

    1h 55m 2022

    Descargar Paradise Highway (2022) HD 1080p Latino. Un camionero se ha visto obligado a pasar de contrabando...

    Director: Anna Gutto

    Género: Crimen

    Actores: Xavier Scott Evans

  • Paradise Highway (2022) PLACEBO Full HD 1080p Latino

    Paradise Highway (2022) PLACEBO Full HD 1080p Latino

    2022
    Paradise Highway (2022) PLACEBO Full HD 1080p Latino

    1h 55m 2022

    Descargar Paradise Highway (2022) PLACEBO Full HD 1080p Latino. Un camionero se ha visto obligado a pasar...

    Director: Anna Gutto

    Género: Crimen

    Actores: Xavier Scott Evans

  • Paradise Highway (2022) REMUX 1080p Latino

    Paradise Highway (2022) REMUX 1080p Latino

    2022
    Paradise Highway (2022) REMUX 1080p Latino

    1h 55m 2022

    Descargar Paradise Highway (2022) REMUX 1080p Latino. Un camionero se ha visto obligado a pasar de contrabando...

    Director: Anna Gutto

    Género: Crimen

    Actores: Xavier Scott Evans

descargar Need For Speed: La Película (2014) REMUX 1080p Latino Full 1080p 1080p gratis, Need For Speed: La Película (2014) REMUX 1080p Latino Full 1080p mega 1 link, Need For Speed: La Película (2014) REMUX 1080p Latino Full 1080p pelicula completa, descargar Need For Speed: La Película (2014) REMUX 1080p Latino Full 1080p gratis en mega.

Need For Speed: La Película (2014) REMUX 1080p Latino pelicula full hd, Need For Speed: La Película (2014) REMUX 1080p Latino mega latino, Need For Speed: La Película (2014) REMUX 1080p Latino 4k latino, Need For Speed: La Película (2014) REMUX 1080p Latino pelicula completa, Need For Speed: La Película (2014) REMUX 1080p Latino descargar gratis, descargar Need For Speed: La Película (2014) REMUX 1080p Latino pelicula latino, Need For Speed: La Película (2014) REMUX 1080p Latino 1 link mega, Need For Speed: La Película (2014) REMUX 1080p Latino 1 link google drive, Need For Speed: La Película (2014) REMUX 1080p Latino hd 1080p latino.
Comentarios 0