×

¿Problemas para descargar con Mozilla, EDGE? Deshabilita la opción "Abrir vinculos en una pestaña nueva" tal como lo muestra ésta imagen.

Piratas del Caribe: Navegando en Aguas Misteriosas (2011) Web-DL 4K UHD HDR Latino

1.279 vistas

Información de Piratas del Caribe: Navegando en Aguas Misteriosas (2011) Web-DL 4K UHD HDR Latino

Datos de la película

  • Calidad: 4K HDR
  • Audio: Se especifica abajo de la Sinopsis
  • Subtitulos: Español Latino SRT - Ingles SRT
  • Resolución: 3840x2160p
  • Formato: MKV
  • Codec: HEVC
  • Encoder: CinefiloCool
  • Mediainfo: Clic para Mostrar Datos Ver
  • P.o.t.C. - Navegando Aguas Misteriosas (2011) Web-DL UHD HDR Latino-CMHDD.mkv
    Format                      : Matroska
    Format version              : Version 4
    File size                   : 17.5 GiB
    Duration                    : 2 h 18 min
    Overall bit rate            : 18.1 Mb/s
    Movie name                  : CinemaniaHDD.Net
    Encoded date                : UTC 2020-03-12 02:04:09
    Writing application         : mkvmerge v42.0.0 ('Overtime') 64-bit
    Writing library             : libebml v1.3.10 + libmatroska v1.5.2
    Attachments                 : CINEMANIAHD.png

    Video
    ID                          : 1
    Format                      : HEVC
    Format/Info                 : High Efficiency Video Coding
    Format profile              : Main 10@L5@High
    Codec ID                    : V_MPEGH/ISO/HEVC
    Duration                    : 2 h 18 min
    Bit rate                    : 16.3 Mb/s
    Width                       : 3 840 pixels
    Height                      : 2 160 pixels
    Display aspect ratio        : 16:9
    Frame rate mode             : Constant
    Frame rate                  : 23.976 (24000/1001) FPS
    Color space                 : YUV
    Chroma subsampling          : 4:2:0
    Bit depth                   : 10 bits
    Bits/(Pixel*Frame)          : 0.082
    Stream size                 : 15.8 GiB (90%)
    Title                       : 2160p HDR [Web]
    Default                     : Yes
    Forced                      : Yes
    Color range                 : Limited
    Color primaries             : BT.2020
    Transfer characteristics    : PQ
    Matrix coefficients         : BT.2020 non-constant

    Audio #1
    ID                          : 2
    Format                      : DTS
    Format/Info                 : Digital Theater Systems
    Codec ID                    : A_DTS
    Duration                    : 2 h 16 min
    Bit rate mode               : Constant
    Bit rate                    : 1 509 kb/s
    Channel(s)                  : 6 channels
    Channel layout              : C L R Ls Rs LFE
    Sampling rate               : 48.0 kHz
    Frame rate                  : 93.750 FPS (512 SPF)
    Bit depth                   : 24 bits
    Compression mode            : Lossy
    Delay relative to video     : 3 ms
    Stream size                 : 1.44 GiB (8%)
    Title                       : DTS_5.1_Bluray_Esp
    Language                    : Spanish
    Default                     : Yes
    Forced                      : Yes

    Audio #2
    ID                          : 3
    Format                      : E-AC-3
    Format/Info                 : Enhanced AC-3
    Commercial name             : Dolby Digital Plus
    Codec ID                    : A_EAC3
    Duration                    : 2 h 18 min
    Bit rate mode               : Constant
    Bit rate                    : 256 kb/s
    Channel(s)                  : 6 channels
    Channel layout              : L R C LFE Ls Rs
    Sampling rate               : 48.0 kHz
    Frame rate                  : 31.250 FPS (1536 SPF)
    Compression mode            : Lossy
    Stream size                 : 254 MiB (1%)
    Title                       : DDP_5.1_Web_Eng
    Language                    : English
    Service kind                : Complete Main
    Default                     : No
    Forced                      : No

    Text #1
    ID                          : 4
    Format                      : UTF-8
    Codec ID                    : S_TEXT/UTF8
    Codec ID/Info               : UTF-8 Plain Text
    Duration                    : 2 h 6 min
    Bit rate                    : 0 b/s
    Count of elements           : 6
    Stream size                 : 178 Bytes (0%)
    Title                       : Sub_Forzados
    Language                    : Spanish
    Default                     : Yes
    Forced                      : Yes

    Text #2
    ID                          : 5
    Format                      : UTF-8
    Codec ID                    : S_TEXT/UTF8
    Codec ID/Info               : UTF-8 Plain Text
    Duration                    : 2 h 6 min
    Bit rate                    : 43 b/s
    Count of elements           : 1265
    Stream size                 : 40.6 KiB (0%)
    Title                       : Sub_Esp
    Language                    : Spanish
    Default                     : No
    Forced                      : No

    Text #3
    ID                          : 6
    Format                      : UTF-8
    Codec ID                    : S_TEXT/UTF8
    Codec ID/Info               : UTF-8 Plain Text
    Duration                    : 2 h 16 min
    Bit rate                    : 50 b/s
    Count of elements           : 1639
    Stream size                 : 50.0 KiB (0%)
    Title                       : Sub_Eng
    Language                    : English
    Default                     : No
    Forced                      : No

    Menu
    00:00:00.000                : en:An Unorthodox Catch/Opening Credits
    00:03:33.247                : en:On Trial
    00:08:45.851                : en:Royal Visit
    00:15:55.155                : en:Escape
    00:18:33.229                : en:The Captain's Daughter
    00:21:14.390                : en:Stolen Identity
    00:30:04.587                : en:The Queen Anne
    00:36:55.831                : en:Mutiny Most Foul
    00:42:04.431                : en:A Bad Man
    00:48:19.097                : en:The Prophecy
    00:53:25.152                : en:Thick as Thieves
    00:55:42.039                : en:The Truth
    00:57:51.919                : en:Whitecap Bay
    01:00:46.552                : en:God Save Me
    01:08:21.298                : en:A Proper Mermaid
    01:11:40.413                : en:Through The Jungle
    01:13:02.245                : en:Whatever is Necessary
    01:14:15.818                : en:A Sudden Urge To Jump
    01:23:19.069                : en:No, You
    01:26:48.696                : en:Jungle Pools
    01:30:15.569                : en:Stirrings
    01:35:42.812                : en:An Improvised Escape
    01:40:57.001                : en:A Trade for the Compass
    01:43:06.631                : en:A Dramatic Entrance
    01:44:50.735                : en:Aqua de Vida
    01:48:52.685                : en:One Last Fight
    01:57:40.546                : en:Do Not Waste My Tear
    02:02:20.450                : en:Choosing the Dog
    02:05:50.535                : en:For The Pearl
    02:07:25.880                : en:Credits

  • Peso: 17.5 GiB

Sinopsis

Descargar Piratas del Caribe: Navegando en Aguas Misteriosas (2011) Web-DL 4K UHD HDR Latino. Cuando Jack Sparrow vuelve a encontrarse con una mujer a la que había conocido años atrás, no está seguro de si se trata de amor o si ella es una estafadora sin escrúpulos que lo está utilizando para encontrar la legendaria Fuente de la Juventud. A todo esto, Jack es capturado por el Venganza de la Reina Ana, el barco del temible pirata Barbanegra, que lo obliga a unirse a su tripulación, lo que le hará vivir una inesperada aventura en la que no sabe quién le inspira más miedo si Barbanegra o esa mujer que regresa del pasado.

Audio Español Latino DTS 5.1 Bluray – Ingles EAC3 5.1 Web-DL

Ficha técnica

Video trailer de la película

Enlaces de descarga

Rip de Bluray

Descargar Piratas del Caribe: Navegando en Aguas Misteriosas (2011) Web-DL 4K UHD HDR Latino




Aportes de DPeliculasHDmega la pass es:dpeliculashdmega.org Aportes de CinemaniaHD la pass es:cinemaniahdd.com
Guardado en : 4K HDR , 4K UHD , Acción , Aventura , Fantasía

Películas relacionadas

descargar Piratas del Caribe: Navegando en Aguas Misteriosas (2011) Web-DL 4K UHD HDR Latino 4K HDR 1080p gratis, Piratas del Caribe: Navegando en Aguas Misteriosas (2011) Web-DL 4K UHD HDR Latino 4K HDR mega 1 link, Piratas del Caribe: Navegando en Aguas Misteriosas (2011) Web-DL 4K UHD HDR Latino 4K HDR pelicula completa, descargar Piratas del Caribe: Navegando en Aguas Misteriosas (2011) Web-DL 4K UHD HDR Latino 4K HDR gratis en mega.

Piratas del Caribe: Navegando en Aguas Misteriosas (2011) Web-DL 4K UHD HDR Latino pelicula full hd, Piratas del Caribe: Navegando en Aguas Misteriosas (2011) Web-DL 4K UHD HDR Latino mega latino, Piratas del Caribe: Navegando en Aguas Misteriosas (2011) Web-DL 4K UHD HDR Latino 4k latino, Piratas del Caribe: Navegando en Aguas Misteriosas (2011) Web-DL 4K UHD HDR Latino pelicula completa, Piratas del Caribe: Navegando en Aguas Misteriosas (2011) Web-DL 4K UHD HDR Latino descargar gratis, descargar Piratas del Caribe: Navegando en Aguas Misteriosas (2011) Web-DL 4K UHD HDR Latino pelicula latino, Piratas del Caribe: Navegando en Aguas Misteriosas (2011) Web-DL 4K UHD HDR Latino 1 link mega, Piratas del Caribe: Navegando en Aguas Misteriosas (2011) Web-DL 4K UHD HDR Latino 1 link google drive, Piratas del Caribe: Navegando en Aguas Misteriosas (2011) Web-DL 4K UHD HDR Latino hd 1080p latino.
Comentarios 0