×

¿Problemas para descargar con Mozilla, EDGE? Deshabilita la opción "Abrir vinculos en una pestaña nueva" tal como lo muestra ésta imagen.

Naturaleza Humana (2022) PLACEBO Full HD 1080p Latino

81 vistas

Información de Naturaleza Humana (2022) PLACEBO Full HD 1080p Latino

Datos de la película

  • Calidad: Full 1080p
  • Audio: Español Latino AC3 2.0 WEB-DL - Ingles DTS 5.1 BLURAY
  • Subtitulos: Español Latino SRT- FORZADOS SRT
  • Resolución: 1920x1080p
  • Formato: MKV
  • Codec: H.264
  • Encoder: Melkor
  • Mediainfo: Clic para Mostrar Datos Ver
  • Naturaleza Humana (2022) PLACEBO 1080p Latino.mkv
    Format                      : Matroska
    Format version              : Version 4
    File size                   : 2.77 GiB
    Duration                    : 1 h 30 min
    Overall bit rate            : 4 369 kb/s
    Movie name                  : Manifest West (2022) CinemaniaHDD.Net
    Encoded date                : UTC 2024-02-26 17:58:52
    Writing application         : mkvmerge v56.1.0 ('My Friend') 64-bit
    Writing library             : libebml v1.4.2 + libmatroska v1.6.4
    Attachments                 : CINEMANIAHD.png

    Video
    ID                          : 1
    Format                      : AVC
    Format/Info                 : Advanced Video Codec
    Format profile              : High@L4.1
    Format settings             : CABAC / 4 Ref Frames
    Format settings, CABAC      : Yes
    Format settings, Reference  : 4 frames
    Codec ID                    : V_MPEG4/ISO/AVC
    Duration                    : 1 h 30 min
    Bit rate                    : 2 601 kb/s
    Width                       : 1 920 pixels
    Height                      : 1 080 pixels
    Display aspect ratio        : 16:9
    Frame rate mode             : Constant
    Frame rate                  : 23.976 (24000/1001) FPS
    Color space                 : YUV
    Chroma subsampling          : 4:2:0
    Bit depth                   : 8 bits
    Scan type                   : Progressive
    Bits/(Pixel*Frame)          : 0.052
    Stream size                 : 1.65 GiB (60%)
    Title                       : Full HD1080p [CinemaniaHDD]
    Writing library             : x264 core 163 r3059 b684ebe0
    Encoding settings           : cabac=1 / ref=4 / deblock=1:0:0 / analyse=0x3:0x133 / me=tesa / subme=11 / psy=1 / psy_rd=1.00:0.00 / mixed_ref=1 / me_range=24 / chroma_me=1 / trellis=2 / 8x8dct=1 / cqm=0 / deadzone=21,11 / fast_pskip=0 / chroma_qp_offset=-2 / threads=24 / lookahead_threads=6 / sliced_threads=0 / nr=0 / decimate=1 / interlaced=0 / bluray_compat=0 / constrained_intra=0 / bframes=16 / b_pyramid=2 / b_adapt=2 / b_bias=0 / direct=3 / weightb=1 / open_gop=0 / weightp=2 / keyint=240 / keyint_min=24 / scenecut=40 / intra_refresh=0 / rc_lookahead=60 / rc=crf / mbtree=1 / crf=19.0 / qcomp=0.60 / qpmin=0 / qpmax=69 / qpstep=4 / vbv_maxrate=62500 / vbv_bufsize=78125 / crf_max=0.0 / nal_hrd=none / filler=0 / ip_ratio=1.40 / aq=1:1.00
    Default                     : Yes
    Forced                      : Yes
    Color range                 : Limited
    Color primaries             : BT.709
    Transfer characteristics    : BT.709
    Matrix coefficients         : BT.709

    Audio #1
    ID                          : 2
    Format                      : AC-3
    Format/Info                 : Audio Coding 3
    Commercial name             : Dolby Digital
    Codec ID                    : A_AC3
    Duration                    : 1 h 30 min
    Bit rate mode               : Constant
    Bit rate                    : 256 kb/s
    Channel(s)                  : 2 channels
    Channel layout              : L R
    Sampling rate               : 48.0 kHz
    Frame rate                  : 31.250 FPS (1536 SPF)
    Compression mode            : Lossy
    Stream size                 : 166 MiB (6%)
    Title                       : Español Latino [CinemaniaHDD]
    Language                    : Spanish
    Service kind                : Complete Main
    Default                     : Yes
    Forced                      : Yes

    Audio #2
    ID                          : 3
    Format                      : DTS
    Format/Info                 : Digital Theater Systems
    Codec ID                    : A_DTS
    Duration                    : 1 h 30 min
    Bit rate mode               : Constant
    Bit rate                    : 1 509 kb/s
    Channel(s)                  : 6 channels
    Channel layout              : C L R Ls Rs LFE
    Sampling rate               : 48.0 kHz
    Frame rate                  : 93.750 FPS (512 SPF)
    Bit depth                   : 24 bits
    Compression mode            : Lossy
    Stream size                 : 980 MiB (35%)
    Title                       : Ingles [CinemaniaHDD]
    Language                    : English
    Default                     : No
    Forced                      : No

    Text #1
    ID                          : 4
    Format                      : UTF-8
    Codec ID                    : S_TEXT/UTF8
    Codec ID/Info               : UTF-8 Plain Text
    Duration                    : 1 h 26 min
    Bit rate                    : 0 b/s
    Count of elements           : 4
    Stream size                 : 110 Bytes (0%)
    Title                       : Forzados-SRT [CinemaniaHDD]
    Language                    : Spanish
    Default                     : Yes
    Forced                      : Yes

    Text #2
    ID                          : 5
    Format                      : UTF-8
    Codec ID                    : S_TEXT/UTF8
    Codec ID/Info               : UTF-8 Plain Text
    Duration                    : 1 h 26 min
    Bit rate                    : 46 b/s
    Count of elements           : 1053
    Stream size                 : 29.6 KiB (0%)
    Title                       : Español-SRT [CinemaniaHDD]
    Language                    : Spanish
    Default                     : No
    Forced                      : No

    Text #3
    ID                          : 6
    Format                      : UTF-8
    Codec ID                    : S_TEXT/UTF8
    Codec ID/Info               : UTF-8 Plain Text
    Duration                    : 1 h 26 min
    Bit rate                    : 48 b/s
    Count of elements           : 1104
    Stream size                 : 30.9 KiB (0%)
    Title                       : Ingles [CinemaniaHDD]
    Language                    : English
    Default                     : No
    Forced                      : No

    Menu
    00:00:00.000                : Chapter 01
    00:13:04.784                : Chapter 02
    00:26:50.609                : Chapter 03
    00:40:13.411                : Chapter 04
    00:54:25.262                : Chapter 05
    01:10:23.219                : Chapter 06
    01:26:19.174                : Chapter 07

  • Peso: 2.77 GiB

Sinopsis

Descargar Naturaleza Humana (2022) PLACEBO Full HD 1080p Latino. Una historia sobre la mayoría de edad contada a través de los ojos de una niña cuya familia se sale de control después de que deciden vivir fuera de la red.

Ficha técnica

Video trailer de la película

Enlaces de descarga

Rip de Bluray

Descargar Naturaleza Humana (2022) PLACEBO Full HD 1080p Latino




Aportes de DPeliculasHDmega la pass es:dpeliculashdmega.org Aportes de CinemaniaHD la pass es:cinemaniahdd.com Aportes recientes:cinemaniahdd.net

Películas relacionadas

  • Fear (2023) AMZN WEB-DL 1080p Latino

    Fear (2023) AMZN WEB-DL 1080p Latino

    2023
    Fear (2023) AMZN WEB-DL 1080p Latino

    1h 38m 2023

    Una escapada muy necesaria y un fin de semana de celebración se convierte en una pesadilla debido a...

    Director: Deon Taylor

    Género: Drama

    Actores: Whylip Lee

  • Chucky (2023) Temporada 3 WEB-DL 1080p Latino

    Chucky (2023) Temporada 3 WEB-DL 1080p Latino

    2021
    Chucky (2023) Temporada 3 WEB-DL 1080p Latino

    0h 42m 2021

    El infame Chucky se abre paso a cuchilladas hacia la televisión en una nueva y mortífera serie escrita...

    Director: Nick Antosca

    Género: Crimen

    Actores: Zackary Arthur

  • Good Burger 2 (2023) PLACEBO Full HD 1080p Latino

    Good Burger 2 (2023) PLACEBO Full HD 1080p Latino

    2023
    Good Burger 2 (2023) PLACEBO Full HD 1080p Latino

    1h 31m 2023

    Descargar Good Burger 2 (2023) PLACEBO Full HD 1080p Latino. Después de que su último invento falla,...

    Director: Ross Novie

    Género: Comedia

    Actores: Zoe Saldana

descargar Naturaleza Humana (2022) PLACEBO Full HD 1080p Latino Full 1080p 1080p gratis, Naturaleza Humana (2022) PLACEBO Full HD 1080p Latino Full 1080p mega 1 link, Naturaleza Humana (2022) PLACEBO Full HD 1080p Latino Full 1080p pelicula completa, descargar Naturaleza Humana (2022) PLACEBO Full HD 1080p Latino Full 1080p gratis en mega.

Naturaleza Humana (2022) PLACEBO Full HD 1080p Latino pelicula full hd, Naturaleza Humana (2022) PLACEBO Full HD 1080p Latino mega latino, Naturaleza Humana (2022) PLACEBO Full HD 1080p Latino 4k latino, Naturaleza Humana (2022) PLACEBO Full HD 1080p Latino pelicula completa, Naturaleza Humana (2022) PLACEBO Full HD 1080p Latino descargar gratis, descargar Naturaleza Humana (2022) PLACEBO Full HD 1080p Latino pelicula latino, Naturaleza Humana (2022) PLACEBO Full HD 1080p Latino 1 link mega, Naturaleza Humana (2022) PLACEBO Full HD 1080p Latino 1 link google drive, Naturaleza Humana (2022) PLACEBO Full HD 1080p Latino hd 1080p latino.
Comentarios 0