×

¿Problemas para descargar con Mozilla, EDGE? Deshabilita la opción "Abrir vinculos en una pestaña nueva" tal como lo muestra ésta imagen.

Natural Born Killers (1994) [Director’s Cut] REMUX 1080p Latino – CMHDD

320 vistas

Información de Natural Born Killers (1994) [Director’s Cut] REMUX 1080p Latino – CMHDD

Datos de la película

  • Calidad: Full 1080p
  • Audio: Español Latino AC3 2.0 BLURAY - Ingles DTS 5.1 BLURAY
  • Subtitulos: Español Latino SRT- FORZADOS SRT
  • Resolución: 1920x1080p
  • Formato: MKV
  • Codec: H.264
  • Encoder: Dracarys
  • Mediainfo: Clic para Mostrar Datos Ver
  • Format                      : Matroska
    Format version              : Version 4
    File size                   : 20.8 GiB
    Duration                    : 2 h 2 min
    Overall bit rate mode       : Variable
    Overall bit rate            : 24.4 Mb/s
    Movie name                  : Natural Born Killers (1994) [Director's Cut] REMUX 1080p Latino - CMHDD
    Encoded date                : UTC 2020-10-11 16:59:02
    Writing application         : mkvmerge v51.0.0 ('I Wish') 64-bit
    Writing library             : libebml v1.4.0 + libmatroska v1.6.2

    Video
    ID                          : 1
    Format                      : VC-1
    Format profile              : Advanced@L3
    Codec ID                    : V_MS/VFW/FOURCC / WVC1
    Codec ID/Hint               : Microsoft
    Duration                    : 2 h 2 min
    Bit rate                    : 20.0 Mb/s
    Width                       : 1 920 pixels
    Height                      : 1 080 pixels
    Display aspect ratio        : 16:9
    Frame rate mode             : Constant
    Frame rate                  : 23.976 (24000/1001) FPS
    Color space                 : YUV
    Chroma subsampling          : 4:2:0
    Bit depth                   : 8 bits
    Scan type                   : Progressive
    Compression mode            : Lossy
    Bits/(Pixel*Frame)          : 0.403
    Stream size                 : 17.1 GiB (82%)
    Default                     : Yes
    Forced                      : No

    Audio #1
    ID                          : 2
    Format                      : AC-3
    Format/Info                 : Audio Coding 3
    Commercial name             : Dolby Digital
    Codec ID                    : A_AC3
    Duration                    : 2 h 2 min
    Bit rate mode               : Constant
    Bit rate                    : 192 kb/s
    Channel(s)                  : 2 channels
    Channel layout              : L R
    Sampling rate               : 48.0 kHz
    Frame rate                  : 31.250 FPS (1536 SPF)
    Compression mode            : Lossy
    Stream size                 : 168 MiB (1%)
    Language                    : Spanish
    Service kind                : Complete Main
    Default                     : No
    Forced                      : No

    Audio #2
    ID                          : 3
    Format                      : DTS XLL
    Format/Info                 : Digital Theater Systems
    Commercial name             : DTS-HD Master Audio
    Codec ID                    : A_DTS
    Duration                    : 2 h 2 min
    Bit rate mode               : Variable
    Bit rate                    : 4 173 kb/s
    Channel(s)                  : 6 channels
    Channel layout              : C L R Ls Rs LFE
    Sampling rate               : 48.0 kHz
    Frame rate                  : 93.750 FPS (512 SPF)
    Bit depth                   : 24 bits
    Compression mode            : Lossless
    Stream size                 : 3.56 GiB (17%)
    Language                    : English
    Default                     : Yes
    Forced                      : No

    Text #1
    ID                          : 4
    Format                      : PGS
    Muxing mode                 : zlib
    Codec ID                    : S_HDMV/PGS
    Codec ID/Info               : Picture based subtitle format used on BDs/HD-DVDs
    Duration                    : 2 h 1 min
    Bit rate                    : 33.0 kb/s
    Count of elements           : 3138
    Stream size                 : 28.6 MiB (0%)
    Language                    : Spanish
    Default                     : No
    Forced                      : No

    Text #2
    ID                          : 5
    Format                      : UTF-8
    Codec ID                    : S_TEXT/UTF8
    Codec ID/Info               : UTF-8 Plain Text
    Duration                    : 2 h 1 min
    Bit rate                    : 56 b/s
    Count of elements           : 1569
    Stream size                 : 50.5 KiB (0%)
    Language                    : Spanish
    Default                     : No
    Forced                      : No

  • Peso: 20.8 GiB

Sinopsis

Micky y Mallory son una poco convencional pareja de jovenes amantes que sienten que han nacido para matar: son dos despiadados criminales que tienen atemorizada a la población. Un presentador de un programa sensacionalista se aprovecha de la fascinación que su personalidad ejerce sobre el público y convierte a los asesinos en héroes televisivos.

Ficha técnica

  • Titulo original: Natural Born Killers
  • Fecha de lanzamiento: 25-08-1994 (United States of America)
  • Director: Oliver Stone
  • Género: Crimen, Drama, Suspenso

Video trailer de la película

Enlaces de descarga

Rip de Bluray

Descargar Natural Born Killers (1994) [Director’s Cut] REMUX 1080p Latino – CMHDD


Aportes de DPeliculasHDmega la pass es:dpeliculashdmega.org Aportes de CinemaniaHD la pass es:cinemaniahdd.com
Guardado en : Crimen , Drama , Suspenso

Películas relacionadas

  • El discurso del Rey (2010) 1080p Latino

    El discurso del Rey (2010) 1080p Latino

    2010
    El discurso del Rey (2010) 1080p Latino

    1h 58m 2010

    Descargar El discurso del Rey (2010) 1080p Latino. El duque de York se convirtió en rey de Gran Bretaña...

    Director: Tom Hooper

    Género: Drama

    Actores: Tony Earnshaw

  • El discurso del Rey (2010) Full HD 1080p Latino

    El discurso del Rey (2010) Full HD 1080p Latino

    2010
    El discurso del Rey (2010) Full HD 1080p Latino

    1h 58m 2010

    Descargar El discurso del Rey (2010) Full HD 1080p Latino. El duque de York se convirtió en rey de Gran...

    Director: Tom Hooper

    Género: Drama

    Actores: Tony Earnshaw

  • El discurso del Rey (2010) REMUX 1080p Latino

    El discurso del Rey (2010) REMUX 1080p Latino

    2010
    El discurso del Rey (2010) REMUX 1080p Latino

    1h 58m 2010

    Descargar El discurso del Rey (2010) REMUX 1080p Latino. El duque de York se convirtió en rey de Gran...

    Director: Tom Hooper

    Género: Drama

    Actores: Tony Earnshaw

  • 8 Mile (2002) REMUX 4K HDR Latino – CMHDD

    8 Mile (2002) REMUX 4K HDR Latino – CMHDD

    2002
    8 Mile (2002) REMUX 4K HDR Latino – CMHDD

    1h 50m 2002

    Detroit, 1995. La promesa de potencia industrial se ha transformado en un hervidero de conflictos económicos...

    Director: Michael J. Moore

    Género: Drama

    Actores: Xzibit

descargar Natural Born Killers (1994) [Director’s Cut] REMUX 1080p Latino – CMHDD Full 1080p 1080p gratis, Natural Born Killers (1994) [Director’s Cut] REMUX 1080p Latino – CMHDD Full 1080p mega 1 link, Natural Born Killers (1994) [Director’s Cut] REMUX 1080p Latino – CMHDD Full 1080p pelicula completa, descargar Natural Born Killers (1994) [Director’s Cut] REMUX 1080p Latino – CMHDD Full 1080p gratis en mega.

Natural Born Killers (1994) [Director’s Cut] REMUX 1080p Latino – CMHDD pelicula full hd, Natural Born Killers (1994) [Director’s Cut] REMUX 1080p Latino – CMHDD mega latino, Natural Born Killers (1994) [Director’s Cut] REMUX 1080p Latino – CMHDD 4k latino, Natural Born Killers (1994) [Director’s Cut] REMUX 1080p Latino – CMHDD pelicula completa, Natural Born Killers (1994) [Director’s Cut] REMUX 1080p Latino – CMHDD descargar gratis, descargar Natural Born Killers (1994) [Director’s Cut] REMUX 1080p Latino – CMHDD pelicula latino, Natural Born Killers (1994) [Director’s Cut] REMUX 1080p Latino – CMHDD 1 link mega, Natural Born Killers (1994) [Director’s Cut] REMUX 1080p Latino – CMHDD 1 link google drive, Natural Born Killers (1994) [Director’s Cut] REMUX 1080p Latino – CMHDD hd 1080p latino.
Comentarios 0