×

¿Problemas para descargar con Mozilla, EDGE? Deshabilita la opción "Abrir vinculos en una pestaña nueva" tal como lo muestra ésta imagen.

National Lampoon’s Animal House (1978) REMUX 4K HDR Latino – CMHDD

412 vistas

Información de National Lampoon’s Animal House (1978) REMUX 4K HDR Latino – CMHDD

Datos de la película

  • Calidad: 4K HDR
  • Audio: Se especifica abajo de la Sinopsis
  • Subtitulos: Español Latino PGS
  • Resolución: 3840x2160p
  • Formato: MKV
  • Codec: H.264
  • Encoder: Dracarys
  • Mediainfo: Clic para Mostrar Datos Ver
  • Format                      : Matroska
    Format version              : Version 4
    File size                   : 69.2 GiB
    Duration                    : 1 h 48 min
    Overall bit rate mode       : Variable
    Overall bit rate            : 91.2 Mb/s
    Movie name                  : National Lampoon's Animal House (1978) REMUX 4K HDR Latino - CMHDD
    Encoded date                : UTC 2021-05-18 02:08:55
    Writing application         : mkvmerge v56.1.0 ('My Friend') 64-bit
    Writing library             : libebml v1.4.2 + libmatroska v1.6.4
    Cover                       : Yes
    Attachments                 : cover.jpg / cover.jpg

    Video
    ID                          : 1
    ID in the original source m : 4113 (0x1011)
    Format                      : HEVC
    Format/Info                 : High Efficiency Video Coding
    Format profile              : Main 10@L5.1@High
    HDR format                  : SMPTE ST 2086, HDR10 compatible
    Codec ID                    : V_MPEGH/ISO/HEVC
    Duration                    : 1 h 48 min
    Bit rate                    : 85.2 Mb/s
    Width                       : 3 840 pixels
    Height                      : 2 160 pixels
    Display aspect ratio        : 16:9
    Frame rate mode             : Constant
    Frame rate                  : 23.976 (24000/1001) FPS
    Color space                 : YUV
    Chroma subsampling          : 4:2:0 (Type 2)
    Bit depth                   : 10 bits
    Bits/(Pixel*Frame)          : 0.428
    Stream size                 : 64.7 GiB (93%)
    Writing library             : ATEME Titan File 3.9.6 (4.9.6.2)        
    Default                     : Yes
    Forced                      : No
    Color range                 : Limited
    Color primaries             : BT.2020
    Transfer characteristics    : PQ
    Matrix coefficients         : BT.2020 non-constant
    Mastering display color pri : Display P3
    Mastering display luminance : min: 0.0050 cd/m2, max: 1000 cd/m2
    Maximum Content Light Level : 962 cd/m2
    Maximum Frame-Average Light : 81 cd/m2
    Original source medium      : Blu-ray

    Audio #1
    ID                          : 2
    ID in the original source m : 4352 (0x1100)
    Format                      : DTS XLL X
    Format/Info                 : Digital Theater Systems
    Commercial name             : DTS-HD Master Audio
    Codec ID                    : A_DTS
    Duration                    : 1 h 48 min
    Bit rate mode               : Variable
    Bit rate                    : 5 531 kb/s
    Channel(s)                  : 8 channels
    Channel(s)_Original         : Object Based
    ChannelLayout_Original      : Object Based
    Sampling rate               : 48.0 kHz
    Frame rate                  : 93.750 FPS (512 SPF)
    Bit depth                   : 24 bits
    Stream size                 : 4.20 GiB (6%)
    Language                    : English
    Default                     : No
    Forced                      : No
    Original source medium      : Blu-ray

    Audio #2
    ID                          : 3
    ID in the original source m : 4354 (0x1102)
    Format                      : DTS
    Format/Info                 : Digital Theater Systems
    Codec ID                    : A_DTS
    Duration                    : 1 h 48 min
    Bit rate mode               : Constant
    Bit rate                    : 447 kb/s
    Channel(s)                  : 2 channels
    Channel layout              : L R
    Sampling rate               : 48.0 kHz
    Frame rate                  : 93.750 FPS (512 SPF)
    Bit depth                   : 24 bits
    Compression mode            : Lossy
    Stream size                 : 347 MiB (0%)
    Language                    : Spanish
    Default                     : Yes
    Forced                      : No
    Original source medium      : Blu-ray

    Text #1
    ID                          : 4
    ID in the original source m : 4771 (0x12A3)
    Format                      : PGS
    Muxing mode                 : zlib
    Codec ID                    : S_HDMV/PGS
    Codec ID/Info               : Picture based subtitle format used on BDs/HD-DVDs
    Duration                    : 1 h 48 min
    Bit rate                    : 29.5 kb/s
    Count of elements           : 2042
    Stream size                 : 22.9 MiB (0%)
    Language                    : Spanish
    Default                     : No
    Forced                      : No
    Original source medium      : Blu-ray

    Text #2
    ID                          : 5
    ID in the original source m : 4780 (0x12AC)
    Format                      : PGS
    Muxing mode                 : zlib
    Codec ID                    : S_HDMV/PGS
    Codec ID/Info               : Picture based subtitle format used on BDs/HD-DVDs
    Duration                    : 1 h 48 min
    Bit rate                    : 1 005 b/s
    Count of elements           : 54
    Stream size                 : 798 KiB (0%)
    Language                    : Spanish
    Default                     : No
    Forced                      : No
    Original source medium      : Blu-ray

    Menu
    00:00:00.000                : Chapter 01
    00:02:36.197                : Chapter 02
    00:05:15.648                : Chapter 03
    00:11:50.751                : Chapter 04
    00:13:38.442                : Chapter 05
    00:17:19.079                : Chapter 06
    00:19:17.239                : Chapter 07
    00:22:22.132                : Chapter 08
    00:25:55.762                : Chapter 09
    00:28:05.558                : Chapter 10
    00:30:52.016                : Chapter 11
    00:31:54.037                : Chapter 12
    00:34:42.246                : Chapter 13
    00:37:12.021                : Chapter 14
    00:40:07.780                : Chapter 15
    00:43:43.203                : Chapter 16
    00:48:26.612                : Chapter 17
    00:51:05.520                : Chapter 18
    00:54:31.810                : Chapter 19
    00:57:34.742                : Chapter 20
    01:00:04.058                : Chapter 21
    01:06:09.882                : Chapter 22
    01:07:51.484                : Chapter 23
    01:09:01.303                : Chapter 24
    01:12:07.906                : Chapter 25
    01:18:15.816                : Chapter 26
    01:19:37.731                : Chapter 27
    01:21:46.526                : Chapter 28
    01:26:38.234                : Chapter 29
    01:29:11.512                : Chapter 30
    01:32:39.095                : Chapter 31

  • Peso: 69.2 GiB

Sinopsis

El Faber College es una Universidad privada de EE.UU, fundada a finales del siglo pasado por Emil Faber. Sin embargo, posee algunas características que la hacen diferente del resto, por su carácter especialmente clasista. Existen en su organización dos partes: la Casa Omega está integrada por estudiantes serios y estirados; los de la Casa Delta son todo lo contrario… Comedia que obtuvo un enorme éxito de taquilla en Estados Unidos; de hecho se mantuvo durante décadas como una de las películas más taquilleras.

 

Español Latino: DTS 2.0 – Ingles DTS-HD Master 7.1

Ficha técnica

Video trailer de la película

Enlaces de descarga

Rip de Bluray

Descargar National Lampoon’s Animal House (1978) REMUX 4K HDR Latino – CMHDD


Aportes de DPeliculasHDmega la pass es:dpeliculashdmega.org Aportes de CinemaniaHD la pass es:cinemaniahdd.com Aportes recientes:cinemaniahdd.net
Guardado en : Comedia

Películas relacionadas

descargar National Lampoon’s Animal House (1978) REMUX 4K HDR Latino – CMHDD 4K HDR 1080p gratis, National Lampoon’s Animal House (1978) REMUX 4K HDR Latino – CMHDD 4K HDR mega 1 link, National Lampoon’s Animal House (1978) REMUX 4K HDR Latino – CMHDD 4K HDR pelicula completa, descargar National Lampoon’s Animal House (1978) REMUX 4K HDR Latino – CMHDD 4K HDR gratis en mega.

National Lampoon’s Animal House (1978) REMUX 4K HDR Latino – CMHDD pelicula full hd, National Lampoon’s Animal House (1978) REMUX 4K HDR Latino – CMHDD mega latino, National Lampoon’s Animal House (1978) REMUX 4K HDR Latino – CMHDD 4k latino, National Lampoon’s Animal House (1978) REMUX 4K HDR Latino – CMHDD pelicula completa, National Lampoon’s Animal House (1978) REMUX 4K HDR Latino – CMHDD descargar gratis, descargar National Lampoon’s Animal House (1978) REMUX 4K HDR Latino – CMHDD pelicula latino, National Lampoon’s Animal House (1978) REMUX 4K HDR Latino – CMHDD 1 link mega, National Lampoon’s Animal House (1978) REMUX 4K HDR Latino – CMHDD 1 link google drive, National Lampoon’s Animal House (1978) REMUX 4K HDR Latino – CMHDD hd 1080p latino.
Comentarios 0