×

¿Problemas para descargar con Mozilla, EDGE? Deshabilita la opción "Abrir vinculos en una pestaña nueva" tal como lo muestra ésta imagen.

Naruto Shippuden. La pelicula 3 (2009) WEB-DL 1080p Latino

188 vistas

Información de Naruto Shippuden. La pelicula 3 (2009) WEB-DL 1080p Latino

Datos de la película

  • Calidad: 1080p
  • Audio: Se especifica abajo de la Sinopsis
  • Subtitulos: Español Latino SRT
  • Resolución: 1920x1080
  • Formato: MKV
  • Codec: H.264
  • Encoder: cinemaniahdd
  • Mediainfo: Clic para Mostrar Datos Ver
  • Naruto Shippuden. La pelicula 3 (2009) WEB-DL 1080p Latino [CNMNHDD].mkv
    Format                      : Matroska
    Format version              : Version 4
    File size                   : 2.93 GiB
    Duration                    : 1 h 35 min
    Overall bit rate            : 4 387 kb/s
    Movie name                  : Naruto Shippuden. La pelicula (2009) La Voluntad de Fuego - CinemaniaHDD.Net
    Encoded date                : UTC 2021-12-05 15:01:04
    Writing application         : mkvmerge v56.1.0 ('My Friend') 64-bit
    Writing library             : libebml v1.4.2 + libmatroska v1.6.4

    Video
    ID                          : 1
    Format                      : AVC
    Format/Info                 : Advanced Video Codec
    Format profile              : High@L4
    Format settings             : CABAC / 3 Ref Frames
    Format settings, CABAC      : Yes
    Format settings, Reference  : 3 frames
    Codec ID                    : V_MPEG4/ISO/AVC
    Duration                    : 1 h 35 min
    Bit rate mode               : Constant
    Bit rate                    : 4 000 kb/s
    Width                       : 1 920 pixels
    Height                      : 1 080 pixels
    Display aspect ratio        : 16:9
    Frame rate mode             : Constant
    Frame rate                  : 23.976 (24000/1001) FPS
    Color space                 : YUV
    Chroma subsampling          : 4:2:0
    Bit depth                   : 8 bits
    Scan type                   : Progressive
    Bits/(Pixel*Frame)          : 0.080
    Stream size                 : 2.67 GiB (91%)
    Title                       : CinemaniaHDD
    Language                    : Spanish
    Default                     : Yes
    Forced                      : No
    Color range                 : Limited
    Color primaries             : BT.709
    Transfer characteristics    : BT.709
    Matrix coefficients         : BT.709

    Audio #1
    ID                          : 2
    Format                      : AAC LC
    Format/Info                 : Advanced Audio Codec Low Complexity
    Codec ID                    : A_AAC-2
    Duration                    : 1 h 35 min
    Bit rate                    : 128 kb/s
    Channel(s)                  : 2 channels
    Channel layout              : L R
    Sampling rate               : 44.1 kHz
    Frame rate                  : 43.066 FPS (1024 SPF)
    Compression mode            : Lossy
    Stream size                 : 87.7 MiB (3%)
    Title                       : Español latino [CinemaniaHDD]
    Language                    : Spanish
    Default                     : Yes
    Forced                      : No

    Audio #2
    ID                          : 3
    Format                      : AAC LC
    Format/Info                 : Advanced Audio Codec Low Complexity
    Codec ID                    : A_AAC-2
    Duration                    : 1 h 35 min
    Bit rate                    : 128 kb/s
    Channel(s)                  : 2 channels
    Channel layout              : L R
    Sampling rate               : 44.1 kHz
    Frame rate                  : 43.066 FPS (1024 SPF)
    Compression mode            : Lossy
    Stream size                 : 87.7 MiB (3%)
    Title                       : Japones [CinemaniaHDD]
    Language                    : Japanese
    Default                     : No
    Forced                      : No

    Audio #3
    ID                          : 4
    Format                      : AAC LC
    Format/Info                 : Advanced Audio Codec Low Complexity
    Codec ID                    : A_AAC-2
    Duration                    : 1 h 35 min
    Bit rate                    : 128 kb/s
    Channel(s)                  : 2 channels
    Channel layout              : L R
    Sampling rate               : 44.1 kHz
    Frame rate                  : 43.066 FPS (1024 SPF)
    Compression mode            : Lossy
    Stream size                 : 87.7 MiB (3%)
    Title                       : Portugues [CinemaniaHDD]
    Language                    : Portuguese
    Default                     : No
    Forced                      : No

    Text
    ID                          : 5
    Format                      : UTF-8
    Codec ID                    : S_TEXT/UTF8
    Codec ID/Info               : UTF-8 Plain Text
    Duration                    : 1 h 30 min
    Bit rate                    : 59 b/s
    Count of elements           : 1187
    Stream size                 : 39.2 KiB (0%)
    Title                       : Español latino [CinemaniaHDD]
    Language                    : Spanish
    Default                     : No
    Forced                      : No

     

  • Peso: 2.93 GiB

Sinopsis

Tercera película basada en el manga Naruto y tercera desarrollada en el arco Shippûden. Cronológicamnte se encuentra situada entre los episodios 72 y 73. La película trata del potencial inicio de una Cuarta Gran Guerra Mundial Shinobi cuando ninjas poseedores de Kekkei Genkai comienzan a desaparecer de Kumogakure, Iwagakure, Kirigakure, y Sunagakure. Como es la única aldea que no es afectada por estos sucesos, Konohagakure es señalada como la causante de este incidente, y comienzan a circular rumores de una posible rebelión. Con las otras naciones traspasando las fronteras del país del Fuego, amenazando con una invasión, el Señor Feudal le ordena a Tsunade capturar al verdadero responsable y probar la inocencia de Konoha; en el caso de fallar, el País del Fuego será forzado a destruir la villa para preservar la paz mundial.

Español Latino AAC 2.0 – Japones AAC 2.0 – Portugues AAC 2.0

Ficha técnica

Video trailer de la película

Enlaces de descarga

Rip de Bluray

Descargar Naruto Shippuden. La pelicula 3 (2009) WEB-DL 1080p Latino




Aportes de DPeliculasHDmega la pass es:dpeliculashdmega.org Aportes de CinemaniaHD la pass es:cinemaniahdd.com

Películas relacionadas

  • Stromboli (2022) NF WEB-DL 1080p Latino

    Stromboli (2022) NF WEB-DL 1080p Latino

    2022
    Stromboli (2022) NF WEB-DL 1080p Latino

    1h 26m 2022

    Descargar Stromboli (2022) NF WEB-DL 1080p Latino. Sara, una mujer que se ha divorciado recientemente,...

    Director: Michiel van Erp

    Género: Drama

    Actores: Tim McInnerny

  • Infiesto (2023) NF WEB-DL 1080p Castellano

    Infiesto (2023) NF WEB-DL 1080p Castellano

    2023
    Infiesto (2023) NF WEB-DL 1080p Castellano

    1h 36m 2023

    Descargar Infiesto (2023) NF WEB-DL 1080p Castellano. Mientras el coronavirus trastoca sus vidas, dos...

    Director: Patxi Amezcua

    Género: Crimen

    Actores: Luis Zahera

  • Espiritu Libre (2023) NF WEB-DL 1080p Latino

    Espiritu Libre (2023) NF WEB-DL 1080p Latino

    2023
    Espiritu Libre (2023) NF WEB-DL 1080p Latino

    1h 49m 2023

    Descargar Espiritu Libre (2023) NF WEB-DL 1080p Latino. La película se basa en la increíble historia...

    Director: Sarah Spillane

    Género: Aventura

    Actores: Vivien Turner

  • Un mundo extraño (2022) HD BDRip 1080p Latino

    Un mundo extraño (2022) HD BDRip 1080p Latino

    2022
    Un mundo extraño (2022) HD BDRip 1080p Latino

    1h 42m 2022

    Descargar Un mundo extraño (2022) HD BDRip 1080p Latino. Los Clades son una familia conocida en todo...

    Director: Thai Bettistea

    Género: Animación

    Actores: Reed Buck

descargar Naruto Shippuden. La pelicula 3 (2009) WEB-DL 1080p Latino 1080p 1080p gratis, Naruto Shippuden. La pelicula 3 (2009) WEB-DL 1080p Latino 1080p mega 1 link, Naruto Shippuden. La pelicula 3 (2009) WEB-DL 1080p Latino 1080p pelicula completa, descargar Naruto Shippuden. La pelicula 3 (2009) WEB-DL 1080p Latino 1080p gratis en mega.

Naruto Shippuden. La pelicula 3 (2009) WEB-DL 1080p Latino pelicula full hd, Naruto Shippuden. La pelicula 3 (2009) WEB-DL 1080p Latino mega latino, Naruto Shippuden. La pelicula 3 (2009) WEB-DL 1080p Latino 4k latino, Naruto Shippuden. La pelicula 3 (2009) WEB-DL 1080p Latino pelicula completa, Naruto Shippuden. La pelicula 3 (2009) WEB-DL 1080p Latino descargar gratis, descargar Naruto Shippuden. La pelicula 3 (2009) WEB-DL 1080p Latino pelicula latino, Naruto Shippuden. La pelicula 3 (2009) WEB-DL 1080p Latino 1 link mega, Naruto Shippuden. La pelicula 3 (2009) WEB-DL 1080p Latino 1 link google drive, Naruto Shippuden. La pelicula 3 (2009) WEB-DL 1080p Latino hd 1080p latino.
Comentarios 0