×

¿Problemas para descargar con Mozilla, EDGE? Deshabilita la opción "Abrir vinculos en una pestaña nueva" tal como lo muestra ésta imagen.

Naruto Shippuden. La pelicula 2 (2008) WEB-DL 1080p Latino

182 vistas

Información de Naruto Shippuden. La pelicula 2 (2008) WEB-DL 1080p Latino

Datos de la película

  • Calidad: 1080p
  • Audio: Se especifica abajo de la Sinopsis
  • Subtitulos: Español Latino SRT
  • Resolución: 1920x1080
  • Formato: MKV
  • Codec: H.264
  • Encoder: cinemaniahdd
  • Mediainfo: Clic para Mostrar Datos Ver
  • Naruto Shippuden. La pelicula 2 (2008) WEB-DL 1080p Latino [CNMNHDD].mkv
    Format                      : Matroska
    Format version              : Version 4
    File size                   : 2.86 GiB
    Duration                    : 1 h 33 min
    Overall bit rate            : 4 387 kb/s
    Movie name                  : Naruto Shippuden. La pelicula (2008) Lazo - CinemaniaHDD.Net
    Encoded date                : UTC 2021-12-05 15:01:51
    Writing application         : mkvmerge v56.1.0 ('My Friend') 64-bit
    Writing library             : libebml v1.4.2 + libmatroska v1.6.4

    Video
    ID                          : 1
    Format                      : AVC
    Format/Info                 : Advanced Video Codec
    Format profile              : High@L4
    Format settings             : CABAC / 3 Ref Frames
    Format settings, CABAC      : Yes
    Format settings, Reference  : 3 frames
    Codec ID                    : V_MPEG4/ISO/AVC
    Duration                    : 1 h 33 min
    Bit rate mode               : Constant
    Bit rate                    : 4 000 kb/s
    Width                       : 1 920 pixels
    Height                      : 1 080 pixels
    Display aspect ratio        : 16:9
    Frame rate mode             : Constant
    Frame rate                  : 23.976 (24000/1001) FPS
    Color space                 : YUV
    Chroma subsampling          : 4:2:0
    Bit depth                   : 8 bits
    Scan type                   : Progressive
    Bits/(Pixel*Frame)          : 0.080
    Stream size                 : 2.61 GiB (91%)
    Title                       : CinemaniaHDD
    Language                    : Spanish
    Default                     : Yes
    Forced                      : No
    Color range                 : Limited
    Color primaries             : BT.709
    Transfer characteristics    : BT.709
    Matrix coefficients         : BT.709

    Audio #1
    ID                          : 2
    Format                      : AAC LC
    Format/Info                 : Advanced Audio Codec Low Complexity
    Codec ID                    : A_AAC-2
    Duration                    : 1 h 33 min
    Bit rate                    : 128 kb/s
    Channel(s)                  : 2 channels
    Channel layout              : L R
    Sampling rate               : 44.1 kHz
    Frame rate                  : 43.066 FPS (1024 SPF)
    Compression mode            : Lossy
    Stream size                 : 85.5 MiB (3%)
    Title                       : Español latino [CinemaniaHDD]
    Language                    : Spanish
    Default                     : Yes
    Forced                      : No

    Audio #2
    ID                          : 3
    Format                      : AAC LC
    Format/Info                 : Advanced Audio Codec Low Complexity
    Codec ID                    : A_AAC-2
    Duration                    : 1 h 33 min
    Bit rate                    : 128 kb/s
    Channel(s)                  : 2 channels
    Channel layout              : L R
    Sampling rate               : 44.1 kHz
    Frame rate                  : 43.066 FPS (1024 SPF)
    Compression mode            : Lossy
    Stream size                 : 85.5 MiB (3%)
    Title                       : Japones [CinemaniaHDD]
    Language                    : Japanese
    Default                     : No
    Forced                      : No

    Audio #3
    ID                          : 4
    Format                      : AAC LC
    Format/Info                 : Advanced Audio Codec Low Complexity
    Codec ID                    : A_AAC-2
    Duration                    : 1 h 33 min
    Bit rate                    : 128 kb/s
    Channel(s)                  : 2 channels
    Channel layout              : L R
    Sampling rate               : 44.1 kHz
    Frame rate                  : 43.066 FPS (1024 SPF)
    Compression mode            : Lossy
    Stream size                 : 85.5 MiB (3%)
    Title                       : Portugues [CinemaniaHDD]
    Language                    : Portuguese
    Default                     : No
    Forced                      : No

    Text
    ID                          : 5
    Format                      : UTF-8
    Codec ID                    : S_TEXT/UTF8
    Codec ID/Info               : UTF-8 Plain Text
    Duration                    : 1 h 30 min
    Bit rate                    : 45 b/s
    Count of elements           : 1007
    Stream size                 : 29.9 KiB (0%)
    Title                       : Español latino [CinemaniaHDD]
    Language                    : Spanish
    Default                     : No
    Forced                      : No

     

  • Peso: 2.86 GiB

Sinopsis

Cuando un misterioso grupo de Shinobi realiza un ataque sorpresa sobre Konoha, la villa queda en ruinas después del ataque. Hasta entonces surge la posibilidad de que otra guerra shinobi pudiera desatarse. Mientras tanto, Sasuke -que abandonó a Kanoha para vengar a su clan por la muerte de su hermano Itachi- reaparece con sus amigos por segunda vez. Quinta película basada en el manga/anime Naruto, y segunda dentro de la línea argumental Shippûden.

Español Latino AAC 2.0 – Japones AAC 2.0 – Portugues AAC 2.0

Ficha técnica

Video trailer de la película

Enlaces de descarga

Rip de Bluray

Descargar Naruto Shippuden. La pelicula 2 (2008) WEB-DL 1080p Latino




Aportes de DPeliculasHDmega la pass es:dpeliculashdmega.org Aportes de CinemaniaHD la pass es:cinemaniahdd.com
Guardado en : Acción , Animación , Fantasía

Películas relacionadas

  • Mar de sangre (2022) WEB-DL 1080p Latino

    Mar de sangre (2022) WEB-DL 1080p Latino

    2022
    Mar de sangre (2022) WEB-DL 1080p Latino

    1h 27m 2022

    Descargar Mar de sangre (2022) WEB-DL 1080p Latino. Un grupo de amigos que disfrutan de un fin de semana...

    Director: James Nunn

    Género: Acción

    Actores: Thomas Michael Flynn

  • Noche sin paz (2022) PLACEBO Full HD 1080p Latino

    Noche sin paz (2022) PLACEBO Full HD 1080p Latino

    2022
    Noche sin paz (2022) PLACEBO Full HD 1080p Latino

    1h 41m 2022

    Descargar Noche sin paz (2022) PLACEBO Full HD 1080p Latino. Cuando un equipo de mercenarios irrumpe...

    Director: Tyshana Hobson

    Género: Acción

    Actores: Yoon Cha-Lee

  • Noche sin paz (2022) HD 1080p Latino

    Noche sin paz (2022) HD 1080p Latino

    2022
    Noche sin paz (2022) HD 1080p Latino

    1h 41m 2022

    Descargar Noche sin paz (2022) HD 1080p Latino. Cuando un equipo de mercenarios irrumpe en Nochebuena...

    Director: Tyshana Hobson

    Género: Acción

    Actores: Yoon Cha-Lee

  • Noche sin paz (2022) REMUX 1080p Latino

    Noche sin paz (2022) REMUX 1080p Latino

    2022
    Noche sin paz (2022) REMUX 1080p Latino

    1h 41m 2022

    Descargar Noche sin paz (2022) REMUX 1080p Latino. Cuando un equipo de mercenarios irrumpe en Nochebuena...

    Director: Tyshana Hobson

    Género: Acción

    Actores: Yoon Cha-Lee

  • Narvik (2022) NF WEB-DL 1080p Latino

    Narvik (2022) NF WEB-DL 1080p Latino

    2022
    Narvik (2022) NF WEB-DL 1080p Latino

    1h 48m 2022

    Descargar Narvik (2022) NF WEB-DL 1080p Latino. Abril de 1940. Los ojos del mundo están puestos en Narvik,...

    Director: Suzanne Svae-Johansen

    Género: Acción

    Actores: Torfinn Nag

descargar Naruto Shippuden. La pelicula 2 (2008) WEB-DL 1080p Latino 1080p 1080p gratis, Naruto Shippuden. La pelicula 2 (2008) WEB-DL 1080p Latino 1080p mega 1 link, Naruto Shippuden. La pelicula 2 (2008) WEB-DL 1080p Latino 1080p pelicula completa, descargar Naruto Shippuden. La pelicula 2 (2008) WEB-DL 1080p Latino 1080p gratis en mega.

Naruto Shippuden. La pelicula 2 (2008) WEB-DL 1080p Latino pelicula full hd, Naruto Shippuden. La pelicula 2 (2008) WEB-DL 1080p Latino mega latino, Naruto Shippuden. La pelicula 2 (2008) WEB-DL 1080p Latino 4k latino, Naruto Shippuden. La pelicula 2 (2008) WEB-DL 1080p Latino pelicula completa, Naruto Shippuden. La pelicula 2 (2008) WEB-DL 1080p Latino descargar gratis, descargar Naruto Shippuden. La pelicula 2 (2008) WEB-DL 1080p Latino pelicula latino, Naruto Shippuden. La pelicula 2 (2008) WEB-DL 1080p Latino 1 link mega, Naruto Shippuden. La pelicula 2 (2008) WEB-DL 1080p Latino 1 link google drive, Naruto Shippuden. La pelicula 2 (2008) WEB-DL 1080p Latino hd 1080p latino.
Comentarios 0