×

¿Problemas para descargar con Mozilla, EDGE? Deshabilita la opción "Abrir vinculos en una pestaña nueva" tal como lo muestra ésta imagen.

Narco Hitman (2016) AMZN WEB-DL 1080p latino

1.743 vistas

Información de Narco Hitman (2016) AMZN WEB-DL 1080p latino

Datos de la película

  • Calidad: WEBDL
  • Audio: Español Latino AC3 2.0 WEB-DL - Ingles AC3 5.1 WEB-DL
  • Subtitulos: Ingles SRT
  • Resolución: 1920x1080
  • Formato: MKV
  • Codec: H.264
  • Encoder: cinemaniahdd
  • Mediainfo: Clic para Mostrar Datos Ver
  • Narco Hitman (2016) AMZN WEB-DL 1080p latino.mkv
    Format                      : Matroska
    Format version              : Version 4
    File size                   : 3.99 GiB
    Duration                    : 1 h 27 min
    Overall bit rate            : 6 552 kb/s
    Movie name                  : Narco Hitman (2016) - CinemaniaHDD.Net
    Encoded date                : UTC 2020-01-03 23:36:35
    Writing application         : mkvmerge v38.0.0 ('The Silent Type') 64-bit
    Writing library             : libebml v1.3.9 + libmatroska v1.5.2

    Video
    ID                          : 1
    Format                      : AVC
    Format/Info                 : Advanced Video Codec
    Format profile              : High@L4
    Format settings             : CABAC / 4 Ref Frames
    Format settings, CABAC      : Yes
    Format settings, ReFrames   : 4 frames
    Codec ID                    : V_MPEG4/ISO/AVC
    Duration                    : 1 h 27 min
    Bit rate mode               : Constant
    Bit rate                    : 5 654 kb/s
    Nominal bit rate            : 10 000 kb/s
    Width                       : 1 920 pixels
    Height                      : 1 080 pixels
    Display aspect ratio        : 16:9
    Frame rate mode             : Constant
    Frame rate                  : 23.976 (24000/1001) FPS
    Color space                 : YUV
    Chroma subsampling          : 4:2:0
    Bit depth                   : 8 bits
    Scan type                   : Progressive
    Bits/(Pixel*Frame)          : 0.114
    Stream size                 : 3.45 GiB (86%)
    Title                       : CinemaniaHDD
    Default                     : Yes
    Forced                      : No
    Color range                 : Limited
    Color primaries             : BT.709
    Transfer characteristics    : BT.709
    Matrix coefficients         : BT.709

    Audio #1
    ID                          : 2
    Format                      : AC-3
    Format/Info                 : Audio Coding 3
    Commercial name             : Dolby Digital
    Codec ID                    : A_AC3
    Duration                    : 1 h 27 min
    Bit rate mode               : Constant
    Bit rate                    : 256 kb/s
    Channel(s)                  : 2 channels
    Channel layout              : L R
    Sampling rate               : 48.0 kHz
    Frame rate                  : 31.250 FPS (1536 SPF)
    Bit depth                   : 16 bits
    Compression mode            : Lossy
    Stream size                 : 160 MiB (4%)
    Title                       : Español latino [CinemaniaHDD]
    Language                    : Spanish
    Service kind                : Complete Main
    Default                     : Yes
    Forced                      : No

    Audio #2
    ID                          : 3
    Format                      : E-AC-3
    Format/Info                 : Enhanced AC-3
    Commercial name             : Dolby Digital Plus
    Codec ID                    : A_EAC3
    Duration                    : 1 h 27 min
    Bit rate mode               : Constant
    Bit rate                    : 640 kb/s
    Channel(s)                  : 6 channels
    Channel layout              : L R C LFE Ls Rs
    Sampling rate               : 48.0 kHz
    Frame rate                  : 31.250 FPS (1536 SPF)
    Compression mode            : Lossy
    Stream size                 : 400 MiB (10%)
    Title                       : Inglés [CinemaniaHDD]
    Language                    : English
    Service kind                : Complete Main
    Default                     : No
    Forced                      : No

    Text
    ID                          : 4
    Format                      : UTF-8
    Codec ID                    : S_TEXT/UTF8
    Codec ID/Info               : UTF-8 Plain Text
    Duration                    : 1 h 25 min
    Bit rate                    : 55 b/s
    Count of elements           : 1198
    Stream size                 : 34.7 KiB (0%)
    Title                       : Inglés [CinemaniaHDD]
    Language                    : English
    Default                     : No
    Forced                      : No

     

  • Peso: 3.99 GiB

Sinopsis

Un asesino a sueldo se venga de un despiadado cartel de drogas, lo que resulta en un misterioso rompecabezas que un sheriff de una pequeña ciudad debe resolver para detener horrores incontables.

Ficha técnica

Video trailer de la película

Enlaces de descarga

Rip de Bluray

Descargar Narco Hitman (2016) AMZN WEB-DL 1080p latino




Aportes de DPeliculasHDmega la pass es:dpeliculashdmega.org Aportes de CinemaniaHD la pass es:cinemaniahdd.com
Guardado en : Misterio , Suspenso

Películas relacionadas

descargar Narco Hitman (2016) AMZN WEB-DL 1080p latino WEBDL 1080p gratis, Narco Hitman (2016) AMZN WEB-DL 1080p latino WEBDL mega 1 link, Narco Hitman (2016) AMZN WEB-DL 1080p latino WEBDL pelicula completa, descargar Narco Hitman (2016) AMZN WEB-DL 1080p latino WEBDL gratis en mega.

Narco Hitman (2016) AMZN WEB-DL 1080p latino pelicula full hd, Narco Hitman (2016) AMZN WEB-DL 1080p latino mega latino, Narco Hitman (2016) AMZN WEB-DL 1080p latino 4k latino, Narco Hitman (2016) AMZN WEB-DL 1080p latino pelicula completa, Narco Hitman (2016) AMZN WEB-DL 1080p latino descargar gratis, descargar Narco Hitman (2016) AMZN WEB-DL 1080p latino pelicula latino, Narco Hitman (2016) AMZN WEB-DL 1080p latino 1 link mega, Narco Hitman (2016) AMZN WEB-DL 1080p latino 1 link google drive, Narco Hitman (2016) AMZN WEB-DL 1080p latino hd 1080p latino.
Comentarios 0