×

¿Problemas para descargar con Mozilla, EDGE? Deshabilita la opción "Abrir vinculos en una pestaña nueva" tal como lo muestra ésta imagen.

Nancy Drew (2021) Segunda Temporada CBS WEB-DL 1080p Latino

354 vistas

Información de Nancy Drew (2021) Segunda Temporada CBS WEB-DL 1080p Latino

Datos de la película

  • Calidad: 1080p
  • Audio: Español Latino AC3 5.1 WEB-DL - Ingles AC3 5.1 WEB-DL
  • Subtitulos: Español Latino SRT
  • Resolución: 1920x1080
  • Formato: MKV
  • Codec: H.264
  • Encoder: cinemaniahdd
  • Mediainfo: Clic para Mostrar Datos Ver
  • Nancy Drew T02E01 CBS WEB-DL 1080p Latino [CNMNHDD].mkv
    Format                      : Matroska
    Format version              : Version 4
    File size                   : 2.52 GiB
    Duration                    : 40 min 5 s
    Overall bit rate mode       : Variable
    Overall bit rate            : 9 016 kb/s
    Movie name                  : Nancy Drew T02E01 - CinemaniaHDD.Net
    Encoded date                : UTC 2021-07-04 01:07:03
    Writing application         : mkvmerge v43.0.0 ('The Quartermaster') 64-bit
    Writing library             : libebml v1.3.10 + libmatroska v1.5.2

    Video
    ID                          : 1
    Format                      : AVC
    Format/Info                 : Advanced Video Codec
    Format profile              : High@L4
    Format settings             : CABAC / 4 Ref Frames
    Format settings, CABAC      : Yes
    Format settings, Reference  : 4 frames
    Codec ID                    : V_MPEG4/ISO/AVC
    Duration                    : 40 min 5 s
    Bit rate mode               : Variable
    Bit rate                    : 7 150 kb/s
    Width                       : 1 920 pixels
    Height                      : 1 080 pixels
    Display aspect ratio        : 16:9
    Frame rate mode             : Constant
    Frame rate                  : 23.976 (24000/1001) FPS
    Color space                 : YUV
    Chroma subsampling          : 4:2:0
    Bit depth                   : 8 bits
    Scan type                   : Progressive
    Bits/(Pixel*Frame)          : 0.166
    Stream size                 : 2.31 GiB (91%)
    Title                       : CinemaniaHDD
    Writing library             : x264 core 157 r2965 861cec4
    Default                     : Yes
    Forced                      : No
    Color range                 : Limited
    Color primaries             : BT.709
    Transfer characteristics    : BT.709
    Matrix coefficients         : BT.709

    Audio #1
    ID                          : 2
    Format                      : AC-3
    Format/Info                 : Audio Coding 3
    Commercial name             : Dolby Digital
    Codec ID                    : A_AC3
    Duration                    : 40 min 5 s
    Bit rate mode               : Constant
    Bit rate                    : 384 kb/s
    Channel(s)                  : 6 channels
    Channel layout              : L R C LFE Ls Rs
    Sampling rate               : 48.0 kHz
    Frame rate                  : 31.250 FPS (1536 SPF)
    Compression mode            : Lossy
    Stream size                 : 110 MiB (4%)
    Title                       : Español latino [CinemaniaHDD]
    Language                    : Spanish
    Service kind                : Complete Main
    Default                     : Yes
    Forced                      : No

    Audio #2
    ID                          : 3
    Format                      : AC-3
    Format/Info                 : Audio Coding 3
    Commercial name             : Dolby Digital
    Codec ID                    : A_AC3
    Duration                    : 40 min 5 s
    Bit rate mode               : Constant
    Bit rate                    : 384 kb/s
    Channel(s)                  : 6 channels
    Channel layout              : L R C LFE Ls Rs
    Sampling rate               : 48.0 kHz
    Frame rate                  : 31.250 FPS (1536 SPF)
    Compression mode            : Lossy
    Stream size                 : 110 MiB (4%)
    Title                       : Inglés [CinemaniaHDD]
    Language                    : English
    Service kind                : Complete Main
    Default                     : No
    Forced                      : No

    Text
    ID                          : 4
    Format                      : UTF-8
    Codec ID                    : S_TEXT/UTF8
    Codec ID/Info               : UTF-8 Plain Text
    Duration                    : 39 min 28 s
    Bit rate                    : 79 b/s
    Count of elements           : 989
    Stream size                 : 22.9 KiB (0%)
    Title                       : Español latino [CinemaniaHDD]
    Language                    : Spanish
    Default                     : No
    Forced                      : No

     

  • Peso: 2.52 GiB Aprox ---- 47.5 GiB in 18 Chapters.

Sinopsis

Devastada por la muerte de su madre, Nancy decide abandonar su labor como detective y empieza a borrar del calendario los días que restan para volver a solicitar que la acepten en una universidad. Todo cambia cuando una persona es asesinada en su presencia, lo que la convierte a ella y al resto de testigos que estaban a su alrededor en sospechosos del crimen. La aventura de Nancy para probar su inocencia la lleva a descubrir que el misterioso asesinato está relacionado con la desaparición de una joven de su pueblo, un caso que nunca llegó a resolverse.

Ficha técnica

Imágenes, Capturas de la película

Video trailer de la película

Enlaces de descarga

Rip de Bluray

Descargar Nancy Drew (2021) Segunda Temporada CBS WEB-DL 1080p Latino




Aportes de DPeliculasHDmega la pass es:dpeliculashdmega.org Aportes de CinemaniaHD la pass es:cinemaniahdd.com
Guardado en : Drama , Misterio , Sci-Fi & Fantasy , Series

Películas relacionadas

descargar Nancy Drew (2021) Segunda Temporada CBS WEB-DL 1080p Latino 1080p 1080p gratis, Nancy Drew (2021) Segunda Temporada CBS WEB-DL 1080p Latino 1080p mega 1 link, Nancy Drew (2021) Segunda Temporada CBS WEB-DL 1080p Latino 1080p serie completa, descargar Nancy Drew (2021) Segunda Temporada CBS WEB-DL 1080p Latino 1080p gratis en mega.

Nancy Drew (2021) Segunda Temporada CBS WEB-DL 1080p Latino pelicula full hd, Nancy Drew (2021) Segunda Temporada CBS WEB-DL 1080p Latino mega latino, Nancy Drew (2021) Segunda Temporada CBS WEB-DL 1080p Latino 4k latino, Nancy Drew (2021) Segunda Temporada CBS WEB-DL 1080p Latino pelicula completa, Nancy Drew (2021) Segunda Temporada CBS WEB-DL 1080p Latino descargar gratis, descargar Nancy Drew (2021) Segunda Temporada CBS WEB-DL 1080p Latino pelicula latino, Nancy Drew (2021) Segunda Temporada CBS WEB-DL 1080p Latino 1 link mega, Nancy Drew (2021) Segunda Temporada CBS WEB-DL 1080p Latino 1 link google drive, Nancy Drew (2021) Segunda Temporada CBS WEB-DL 1080p Latino hd 1080p latino.
Comentarios 0