×

¿Problemas para descargar con Mozilla, EDGE? Deshabilita la opción "Abrir vinculos en una pestaña nueva" tal como lo muestra ésta imagen.

Nancy Drew y la Escalera Oculta (2019) Full HD 1080p Latino

1.367 vistas

Información de Nancy Drew y la Escalera Oculta (2019) Full HD 1080p Latino

nancy drew y la escalera escondida 54857 poster

Datos de la película

  • Calidad: Full 1080p
  • Audio: Español Latino AC3 5.1 BLURAY - Ingles DTS 5.1 BLURAY
  • Subtitulos: Español Latino PGS - Ingles PGS
  • Resolución: 1920x1080p
  • Formato: MKV
  • Codec: H.264
  • Encoder: CinefiloCool
  • Mediainfo: Clic para Mostrar Datos Ver
  • Nancy Drew (2019) Full HD 1080p Latino-CMHDD.mkv
    Format                      : Matroska
    Format version              : Version 4
    File size                   : 4.94 GiB
    Duration                    : 1 h 29 min
    Overall bit rate            : 7 930 kb/s
    Movie name                  : CinemaniaHDD.Net
    Encoded date                : UTC 2019-07-07 20:37:27
    Writing application         : mkvmerge v35.0.0 ('All The Love In The World') 64-bit
    Writing library             : libebml v1.3.9 + libmatroska v1.5.2
    Attachments                 : CINEMANIAHD.png

    Video
    ID                          : 1
    Format                      : AVC
    Format/Info                 : Advanced Video Codec
    Format profile              : High@L4.1
    Format settings             : CABAC / 4 Ref Frames
    Format settings, CABAC      : Yes
    Format settings, ReFrames   : 4 frames
    Codec ID                    : V_MPEG4/ISO/AVC
    Duration                    : 1 h 29 min
    Bit rate                    : 5 752 kb/s
    Width                       : 1 920 pixels
    Height                      : 1 080 pixels
    Display aspect ratio        : 16:9
    Frame rate mode             : Constant
    Frame rate                  : 23.976 (24000/1001) FPS
    Color space                 : YUV
    Chroma subsampling          : 4:2:0
    Bit depth                   : 8 bits
    Scan type                   : Progressive
    Bits/(Pixel*Frame)          : 0.116
    Stream size                 : 3.59 GiB (73%)
    Title                       : Full HD1080p [Bluray]
    Writing library             : x264 core 157 r2935 545de2f
    Encoding settings           : cabac=1 / ref=4 / deblock=1:0:0 / analyse=0x3:0x133 / me=tesa / subme=11 / psy=1 / psy_rd=1.00:0.00 / mixed_ref=1 / me_range=24 / chroma_me=1 / trellis=2 / 8x8dct=1 / cqm=0 / deadzone=21,11 / fast_pskip=0 / chroma_qp_offset=-2 / threads=34 / lookahead_threads=8 / sliced_threads=0 / nr=0 / decimate=1 / interlaced=0 / bluray_compat=0 / constrained_intra=0 / bframes=16 / b_pyramid=2 / b_adapt=2 / b_bias=0 / direct=3 / weightb=1 / open_gop=0 / weightp=2 / keyint=240 / keyint_min=24 / scenecut=40 / intra_refresh=0 / rc_lookahead=60 / rc=crf / mbtree=1 / crf=20.0 / qcomp=0.60 / qpmin=0 / qpmax=69 / qpstep=4 / vbv_maxrate=62500 / vbv_bufsize=78125 / crf_max=0.0 / nal_hrd=none / filler=0 / ip_ratio=1.40 / aq=1:1.00
    Default                     : Yes
    Forced                      : No
    Color range                 : Limited
    Color primaries             : BT.709
    Transfer characteristics    : BT.709
    Matrix coefficients         : BT.709

    Audio #1
    ID                          : 2
    Format                      : AC-3
    Format/Info                 : Audio Coding 3
    Commercial name             : Dolby Digital
    Codec ID                    : A_AC3
    Duration                    : 1 h 29 min
    Bit rate mode               : Constant
    Bit rate                    : 640 kb/s
    Channel(s)                  : 6 channels
    Channel layout              : L R C LFE Ls Rs
    Sampling rate               : 48.0 kHz
    Frame rate                  : 31.250 FPS (1536 SPF)
    Bit depth                   : 16 bits
    Compression mode            : Lossy
    Stream size                 : 409 MiB (8%)
    Title                       : AC3_5.1_Bluray_Esp
    Language                    : Spanish
    Service kind                : Complete Main
    Default                     : Yes
    Forced                      : Yes

    Audio #2
    ID                          : 3
    Format                      : DTS
    Format/Info                 : Digital Theater Systems
    Codec ID                    : A_DTS
    Duration                    : 1 h 29 min
    Bit rate mode               : Constant
    Bit rate                    : 1 509 kb/s
    Channel(s)                  : 6 channels
    Channel layout              : C L R Ls Rs LFE
    Sampling rate               : 48.0 kHz
    Frame rate                  : 93.750 FPS (512 SPF)
    Bit depth                   : 24 bits
    Compression mode            : Lossy
    Stream size                 : 963 MiB (19%)
    Title                       : DTS_5.1_Bluray_Eng
    Language                    : English
    Default                     : No
    Forced                      : No

    Text #1
    ID                          : 4
    Format                      : PGS
    Muxing mode                 : zlib
    Codec ID                    : S_HDMV/PGS
    Codec ID/Info               : Picture based subtitle format used on BDs/HD-DVDs
    Duration                    : 1 h 8 min
    Bit rate                    : 674 b/s
    Count of elements           : 36
    Stream size                 : 338 KiB (0%)
    Title                       : Sub_Forzados [PGS]
    Language                    : Spanish
    Default                     : Yes
    Forced                      : Yes

    Text #2
    ID                          : 5
    Format                      : PGS
    Muxing mode                 : zlib
    Codec ID                    : S_HDMV/PGS
    Codec ID/Info               : Picture based subtitle format used on BDs/HD-DVDs
    Duration                    : 1 h 28 min
    Bit rate                    : 41.9 kb/s
    Count of elements           : 2796
    Stream size                 : 26.5 MiB (1%)
    Title                       : Sub_Esp [PGS]
    Language                    : Spanish
    Default                     : No
    Forced                      : No

    Text #3
    ID                          : 6
    Format                      : PGS
    Muxing mode                 : zlib
    Codec ID                    : S_HDMV/PGS
    Codec ID/Info               : Picture based subtitle format used on BDs/HD-DVDs
    Duration                    : 1 h 25 min
    Bit rate                    : 48.7 kb/s
    Count of elements           : 3042
    Stream size                 : 29.8 MiB (1%)
    Title                       : Sub_Eng [PGS]
    Language                    : English
    Default                     : No
    Forced                      : No

    Text #4
    ID                          : 7
    Format                      : UTF-8
    Codec ID                    : S_TEXT/UTF8
    Codec ID/Info               : UTF-8 Plain Text
    Duration                    : 1 h 8 min
    Bit rate                    : 0 b/s
    Count of elements           : 18
    Stream size                 : 428 Bytes (0%)
    Title                       : Sub_Forzados
    Language                    : Spanish
    Default                     : No
    Forced                      : No

    Text #5
    ID                          : 8
    Format                      : UTF-8
    Codec ID                    : S_TEXT/UTF8
    Codec ID/Info               : UTF-8 Plain Text
    Duration                    : 1 h 24 min
    Bit rate                    : 73 b/s
    Count of elements           : 1396
    Stream size                 : 45.2 KiB (0%)
    Title                       : Sub_Esp
    Language                    : Spanish
    Default                     : No
    Forced                      : No

    Menu
    00:00:00.000                : :Chapter 1
    00:09:28.234                : :Chapter 2
    00:19:11.108                : :Chapter 3
    00:26:41.809                : :Chapter 4
    00:34:24.980                : :Chapter 5
    00:42:01.019                : :Chapter 6
    00:51:06.939                : :Chapter 7
    00:59:47.751                : :Chapter 8
    01:09:19.781                : :Chapter 9
    01:19:26.262                : :Chapter 10
    01:25:38.634                : :Chapter 11

  • Peso: 4.94 GiB

Sinopsis

Descargar Nancy Drew y la Escalera Oculta (2019) Full HD 1080p Latino, Mega, Google Drive. Nancy (Sophia Lillis), una extraña que trata de encajar en el nuevo ambiente en el que se mueve, trata de resolver un misterio con la ayuda de sus amigos al mismo tiempo que busca su lugar en la comunidad donde ahora reside.

Ficha técnica

Video trailer de la película

Enlaces de descarga

Rip de Bluray

Descargar Nancy Drew y la Escalera Oculta (2019) Full HD 1080p Latino




Aportes de DPeliculasHDmega la pass es:dpeliculashdmega.org Aportes de CinemaniaHD la pass es:cinemaniahdd.com Aportes recientes:cinemaniahdd.net

Películas relacionadas

descargar Nancy Drew y la Escalera Oculta (2019) Full HD 1080p Latino Full 1080p 1080p gratis, Nancy Drew y la Escalera Oculta (2019) Full HD 1080p Latino Full 1080p mega 1 link, Nancy Drew y la Escalera Oculta (2019) Full HD 1080p Latino Full 1080p pelicula completa, descargar Nancy Drew y la Escalera Oculta (2019) Full HD 1080p Latino Full 1080p gratis en mega.

Nancy Drew y la Escalera Oculta (2019) Full HD 1080p Latino pelicula full hd, Nancy Drew y la Escalera Oculta (2019) Full HD 1080p Latino mega latino, Nancy Drew y la Escalera Oculta (2019) Full HD 1080p Latino 4k latino, Nancy Drew y la Escalera Oculta (2019) Full HD 1080p Latino pelicula completa, Nancy Drew y la Escalera Oculta (2019) Full HD 1080p Latino descargar gratis, descargar Nancy Drew y la Escalera Oculta (2019) Full HD 1080p Latino pelicula latino, Nancy Drew y la Escalera Oculta (2019) Full HD 1080p Latino 1 link mega, Nancy Drew y la Escalera Oculta (2019) Full HD 1080p Latino 1 link google drive, Nancy Drew y la Escalera Oculta (2019) Full HD 1080p Latino hd 1080p latino.
Comentarios 0