×

¿Problemas para descargar con Mozilla, EDGE? Deshabilita la opción "Abrir vinculos en una pestaña nueva" tal como lo muestra ésta imagen.

Nail Bomber: Manhunt (2021) NF WEB-DL 1080p Latino

160 vistas

Información de Nail Bomber: Manhunt (2021) NF WEB-DL 1080p Latino

Datos de la película

  • Calidad: WEBDL
  • Audio: Español Latino AC3 5.1 WEB-DL - Ingles AC3 5.1 WEB-DL
  • Subtitulos: Español Latino SRT- FORZADOS SRT
  • Resolución: 1920x1080
  • Formato: MKV
  • Codec: H.264
  • Encoder: cinemaniahdd
  • Mediainfo: Clic para Mostrar Datos Ver
  • Nail Bomber. Manhunt (2021) NF WEB-DL 1080p Latino [CNMNHDD].mkv
    Format                      : Matroska
    Format version              : Version 4
    File size                   : 3.07 GiB
    Duration                    : 1 h 12 min
    Overall bit rate mode       : Variable
    Overall bit rate            : 6 054 kb/s
    Movie name                  : Nail Bomber. Manhunt (2021) - CinemaniaHDD.Net
    Encoded date                : UTC 2021-05-28 00:20:34
    Writing application         : mkvmerge v56.1.0 ('My Friend') 64-bit
    Writing library             : libebml v1.4.2 + libmatroska v1.6.4

    Video
    ID                          : 1
    Format                      : AVC
    Format/Info                 : Advanced Video Codec
    Format profile              : Main@L4
    Format settings             : CABAC / 3 Ref Frames
    Format settings, CABAC      : Yes
    Format settings, Reference  : 3 frames
    Codec ID                    : V_MPEG4/ISO/AVC
    Duration                    : 1 h 12 min
    Bit rate mode               : Variable
    Bit rate                    : 5 284 kb/s
    Nominal bit rate            : 6 036 kb/s
    Maximum bit rate            : 11.2 Mb/s
    Width                       : 1 920 pixels
    Height                      : 1 080 pixels
    Display aspect ratio        : 16:9
    Frame rate mode             : Constant
    Frame rate                  : 25.000 FPS
    Color space                 : YUV
    Chroma subsampling          : 4:2:0
    Bit depth                   : 8 bits
    Scan type                   : Progressive
    Bits/(Pixel*Frame)          : 0.102
    Stream size                 : 2.68 GiB (87%)
    Title                       : CinemaniaHDD
    Writing library             : x264 core 148 r2722 1b0121b
    Encoding settings           : cabac=1 / ref=3 / deblock=1:0:0 / analyse=0x1:0x111 / me=umh / subme=10 / psy=1 / psy_rd=1.00:0.00 / mixed_ref=1 / me_range=24 / chroma_me=1 / trellis=2 / 8x8dct=0 / cqm=0 / deadzone=21,11 / fast_pskip=1 / chroma_qp_offset=-2 / threads=8 / lookahead_threads=1 / sliced_threads=0 / nr=0 / decimate=1 / interlaced=0 / bluray_compat=0 / stitchable=1 / constrained_intra=0 / bframes=2 / b_pyramid=0 / b_adapt=2 / b_bias=0 / direct=3 / weightb=1 / open_gop=0 / weightp=2 / keyint=250 / keyint_min=25 / scenecut=0 / intra_refresh=0 / rc_lookahead=50 / rc=2pass / mbtree=1 / bitrate=6036 / ratetol=1.0 / qcomp=0.50 / qpmin=6 / qpmax=51 / qpstep=4 / cplxblur=20.0 / qblur=0.5 / vbv_maxrate=11250 / vbv_bufsize=15000 / nal_hrd=vbr / filler=0 / ip_ratio=1.40 / aq=1:1.00
    Default                     : Yes
    Forced                      : No

    Audio #1
    ID                          : 2
    Format                      : AC-3
    Format/Info                 : Audio Coding 3
    Commercial name             : Dolby Digital
    Codec ID                    : A_AC3
    Duration                    : 1 h 12 min
    Bit rate mode               : Constant
    Bit rate                    : 384 kb/s
    Channel(s)                  : 6 channels
    Channel layout              : L R C LFE Ls Rs
    Sampling rate               : 48.0 kHz
    Frame rate                  : 31.250 FPS (1536 SPF)
    Compression mode            : Lossy
    Stream size                 : 200 MiB (6%)
    Title                       : Español latino [CinemaniaHDD]
    Language                    : Spanish
    Service kind                : Complete Main
    Default                     : Yes
    Forced                      : No

    Audio #2
    ID                          : 3
    Format                      : AC-3
    Format/Info                 : Audio Coding 3
    Commercial name             : Dolby Digital
    Codec ID                    : A_AC3
    Duration                    : 1 h 12 min
    Bit rate mode               : Constant
    Bit rate                    : 384 kb/s
    Channel(s)                  : 6 channels
    Channel layout              : L R C LFE Ls Rs
    Sampling rate               : 48.0 kHz
    Frame rate                  : 31.250 FPS (1536 SPF)
    Compression mode            : Lossy
    Stream size                 : 200 MiB (6%)
    Title                       : Inglés [CinemaniaHDD]
    Language                    : English
    Service kind                : Complete Main
    Default                     : No
    Forced                      : No

    Text #1
    ID                          : 4
    Format                      : UTF-8
    Codec ID                    : S_TEXT/UTF8
    Codec ID/Info               : UTF-8 Plain Text
    Duration                    : 1 h 11 min
    Bit rate                    : 17 b/s
    Count of elements           : 219
    Stream size                 : 9.32 KiB (0%)
    Title                       : Forzados [CinemaniaHDD]
    Language                    : Spanish
    Default                     : Yes
    Forced                      : Yes

    Text #2
    ID                          : 5
    Format                      : UTF-8
    Codec ID                    : S_TEXT/UTF8
    Codec ID/Info               : UTF-8 Plain Text
    Duration                    : 1 h 11 min
    Bit rate                    : 79 b/s
    Count of elements           : 1049
    Stream size                 : 41.5 KiB (0%)
    Title                       : Español latino [CinemaniaHDD]
    Language                    : Spanish
    Default                     : No
    Forced                      : No

     

  • Peso: 3.07 GiB

Sinopsis

Documental sobre los atentados de 1999 contra la comunidad negra, bangladesí y gay de Londres y la frenética búsqueda del culpable, un extremista de ultraderecha.

Ficha técnica

Video trailer de la película

Enlaces de descarga

Rip de Bluray

Descargar Nail Bomber: Manhunt (2021) NF WEB-DL 1080p Latino




Aportes de DPeliculasHDmega la pass es:dpeliculashdmega.org Aportes de CinemaniaHD la pass es:cinemaniahdd.com
Guardado en : Crimen , Documental , Historia

Películas relacionadas

  • El Perfumista (2022) NF WEB-DL 1080p Latino

    El Perfumista (2022) NF WEB-DL 1080p Latino

    2022
    El Perfumista (2022) NF WEB-DL 1080p Latino

    1h 36m 2022

    Descargar El Perfumista (2022) NF WEB-DL 1080p Latino. Para recuperar su sentido del olfato y el afecto...

    Director: Nils Willbrandt

    Género: Crimen

    Actores: Sólveig Arnarsdóttir

  • Taken 2 (2012) UNRATED REMUX 1080p Latino – CMHDD

    Taken 2 (2012) UNRATED REMUX 1080p Latino – CMHDD

    2012
    Taken 2 (2012) UNRATED REMUX 1080p Latino – CMHDD

    1h 31m 2012

    Aunque ya está retirado, Bryan Mills se ve obligado a utilizar todos sus recursos y habilidades de agente...

    Director: William Pruss

    Género: Acción

    Actores: Yilmaz Kovan

  • Taken 2 (2012) Full HD 1080p Latino – CMHDD

    Taken 2 (2012) Full HD 1080p Latino – CMHDD

    2012
    Taken 2 (2012) Full HD 1080p Latino – CMHDD

    1h 31m 2012

    Aunque ya está retirado, Bryan Mills se ve obligado a utilizar todos sus recursos y habilidades de agente...

    Director: William Pruss

    Género: Acción

    Actores: Yilmaz Kovan

descargar Nail Bomber: Manhunt (2021) NF WEB-DL 1080p Latino WEBDL 1080p gratis, Nail Bomber: Manhunt (2021) NF WEB-DL 1080p Latino WEBDL mega 1 link, Nail Bomber: Manhunt (2021) NF WEB-DL 1080p Latino WEBDL pelicula completa, descargar Nail Bomber: Manhunt (2021) NF WEB-DL 1080p Latino WEBDL gratis en mega.

Nail Bomber: Manhunt (2021) NF WEB-DL 1080p Latino pelicula full hd, Nail Bomber: Manhunt (2021) NF WEB-DL 1080p Latino mega latino, Nail Bomber: Manhunt (2021) NF WEB-DL 1080p Latino 4k latino, Nail Bomber: Manhunt (2021) NF WEB-DL 1080p Latino pelicula completa, Nail Bomber: Manhunt (2021) NF WEB-DL 1080p Latino descargar gratis, descargar Nail Bomber: Manhunt (2021) NF WEB-DL 1080p Latino pelicula latino, Nail Bomber: Manhunt (2021) NF WEB-DL 1080p Latino 1 link mega, Nail Bomber: Manhunt (2021) NF WEB-DL 1080p Latino 1 link google drive, Nail Bomber: Manhunt (2021) NF WEB-DL 1080p Latino hd 1080p latino.
Comentarios 0