Nadie (2021) 4K UHD HDR WEB Latino

62 vistas
1 estrella2 estrellas3 estrellas4 estrellas5 estrellas (1 votos, promedio: 5,00 de 5)
Cargando...

Información de Nadie (2021) 4K UHD HDR WEB Latino

Datos de la película

  • Calidad: WEBDL
  • Audio: Español Latino AC3 2.0 WEB-DL - Ingles AC3 5.1 WEB-DL
  • Subtitulos: Español Latino SRT- FORZADOS SRT
  • Resolución: 3840x2160p
  • Formato: MKV
  • Codec: HEVC
  • Encoder: CinemaniaHD
  • Mediainfo: Clic para Mostrar Datos Ver
  • Nadie (2021) UHD HDR WEB Latino.mkv
    Format                      : Matroska
    Format version              : Version 4
    File size                   : 10.2 GiB
    Duration                    : 1 h 31 min
    Overall bit rate            : 16.0 Mb/s
    Movie name                  : Nobody (2021) CinemaniaHDD.Net
    Encoded date                : UTC 2021-04-15 14:41:42
    Writing application         : mkvmerge v51.0.0 ('I Wish') 64-bit
    Writing library             : libebml v1.4.0 + libmatroska v1.6.2

    Video
    ID                          : 1
    Format                      : HEVC
    Format/Info                 : High Efficiency Video Coding
    Format profile              : Main 10@L5@Main
    Codec ID                    : V_MPEGH/ISO/HEVC
    Duration                    : 1 h 31 min
    Bit rate                    : 15.1 Mb/s
    Width                       : 3 840 pixels
    Height                      : 2 160 pixels
    Display aspect ratio        : 16:9
    Frame rate mode             : Constant
    Frame rate                  : 23.976 (24000/1001) FPS
    Color space                 : YUV
    Chroma subsampling          : 4:2:0 (Type 2)
    Bit depth                   : 10 bits
    Bits/(Pixel*Frame)          : 0.076
    Stream size                 : 9.66 GiB (94%)
    Title                       : Web 2160p HDR [CinemaniaHDD]
    Default                     : Yes
    Forced                      : No
    Color range                 : Limited
    Color primaries             : BT.2020
    Transfer characteristics    : PQ
    Matrix coefficients         : BT.2020 non-constant
    Maximum Content Light Level : 1000 cd/m2
    Maximum Frame-Average Light : 312 cd/m2

    Audio #1
    ID                          : 2
    Format                      : AC-3
    Format/Info                 : Audio Coding 3
    Commercial name             : Dolby Digital
    Codec ID                    : A_AC3
    Duration                    : 1 h 31 min
    Bit rate mode               : Constant
    Bit rate                    : 256 kb/s
    Channel(s)                  : 2 channels
    Channel layout              : L R
    Sampling rate               : 48.0 kHz
    Frame rate                  : 31.250 FPS (1536 SPF)
    Compression mode            : Lossy
    Stream size                 : 168 MiB (2%)
    Title                       : Español Latino [CinemaniaHDD]
    Language                    : Spanish
    Service kind                : Complete Main
    Default                     : Yes
    Forced                      : Yes

    Audio #2
    ID                          : 3
    Format                      : E-AC-3
    Format/Info                 : Enhanced AC-3
    Commercial name             : Dolby Digital Plus
    Codec ID                    : A_EAC3
    Duration                    : 1 h 31 min
    Bit rate mode               : Constant
    Bit rate                    : 640 kb/s
    Channel(s)                  : 6 channels
    Channel layout              : L R C LFE Ls Rs
    Sampling rate               : 48.0 kHz
    Frame rate                  : 31.250 FPS (1536 SPF)
    Compression mode            : Lossy
    Stream size                 : 420 MiB (4%)
    Title                       : Ingles [CinemaniaHDD]
    Language                    : English
    Service kind                : Complete Main
    Default                     : No
    Forced                      : No

    Text #1
    ID                          : 4
    Format                      : UTF-8
    Codec ID                    : S_TEXT/UTF8
    Codec ID/Info               : UTF-8 Plain Text
    Duration                    : 1 h 23 min
    Bit rate                    : 2 b/s
    Count of elements           : 79
    Stream size                 : 1.64 KiB (0%)
    Title                       : Forzados-SRT [CinemaniaHDD]
    Language                    : Spanish
    Default                     : Yes
    Forced                      : Yes

    Text #2
    ID                          : 5
    Format                      : UTF-8
    Codec ID                    : S_TEXT/UTF8
    Codec ID/Info               : UTF-8 Plain Text
    Duration                    : 1 h 30 min
    Bit rate                    : 31 b/s
    Count of elements           : 785
    Stream size                 : 20.9 KiB (0%)
    Title                       : Español-SRT [CinemaniaHDD]
    Language                    : Spanish
    Default                     : No
    Forced                      : No

    Text #3
    ID                          : 6
    Format                      : UTF-8
    Codec ID                    : S_TEXT/UTF8
    Codec ID/Info               : UTF-8 Plain Text
    Duration                    : 1 h 31 min
    Bit rate                    : 49 b/s
    Count of elements           : 1329
    Stream size                 : 33.3 KiB (0%)
    Title                       : Ingles-SRT [CinemaniaHDD]
    Language                    : English
    Default                     : No
    Forced                      : No

  • Peso: 10.2 GiB

Sinopsis

Descargar Nadie (2021) 4K UHD HDR WEB Latino. Hutch Mansell, un padre de familia que aguanta con resignación y sin defenderse los golpes de la vida. Un don nadie. Una noche, cuando dos ladrones entran en su casa, Hutch decide no actuar y no trata de defenderse ni al él mismo ni a su familia, convencido de que solo así evitará una escalada de violencia. Tras el ataque, su hija adolescente Blake no oculta su decepción, y su esposa Becca se aleja todavía más.

Ficha técnica

Video trailer de la película

Enlaces de descarga

Rip de Bluray

Descargar Nadie (2021) 4K UHD HDR WEB Latino




Aportes de DPeliculasHDmega la pass es:dpeliculashdmega.org Aportes de CinemaniaHD la pass es:cinemaniahdd.com
Guardado en : 4K HDR , 4K UHD , Acción , Crimen , Suspenso

Películas relacionadas

  • Ferry (2021) NF WEB-DL 1080p Latino

    Ferry (2021) NF WEB-DL 1080p Latino

    2021
    Ferry (2021) NF WEB-DL 1080p Latino

    5.0 1h 46m 2021

    Antes de levantar su imperio de drogas, Ferry Bouman vuelve a casa con una misión de venganza que pone...

    Director: Cecilia Verheyden

    Género: Acción

    Actores: Yannick van de Velde

  • I Am All Girls (2021) NF WEB-DL 1080p Latino

    I Am All Girls (2021) NF WEB-DL 1080p Latino

    2021
    I Am All Girls (2021) NF WEB-DL 1080p Latino

    5.0 1h 47m 2021

    Una detective implacable encuentra que tiene intereses en común con alguien que asesina sistemáticamente...

    Director: Donovan Marsh

    Género: Crimen

    Actores: Masasa Mbangeni

Nadie (2021) 4K UHD HDR WEB Latino pelicula full hd, Nadie (2021) 4K UHD HDR WEB Latino mega latino, Nadie (2021) 4K UHD HDR WEB Latino 4k latino, Nadie (2021) 4K UHD HDR WEB Latino pelicula completa, Nadie (2021) 4K UHD HDR WEB Latino descargar gratis, descargar Nadie (2021) 4K UHD HDR WEB Latino pelicula latino, Nadie (2021) 4K UHD HDR WEB Latino 1 link mega, Nadie (2021) 4K UHD HDR WEB Latino 1 link google drive, Nadie (2021) 4K UHD HDR WEB Latino hd 1080p latino.
Comentarios 0