×

¿Problemas para descargar con Mozilla, EDGE? Deshabilita la opción "Abrir vinculos en una pestaña nueva" tal como lo muestra ésta imagen.

MYSTERIOUS FIGHTER Project A (2018) WEB-DL 1080p Latino

826 vistas

Información de MYSTERIOUS FIGHTER Project A (2018) WEB-DL 1080p Latino

Datos de la película

  • Calidad: WEBDL
  • Audio: Español Latino AC3 2.0 iTunes - Ingles AC3 2.0 iTunes
  • Subtitulos: Español Latino SRT- FORZADOS SRT
  • Resolución: 1920x1080
  • Formato: MKV
  • Codec: H.264
  • Encoder: cinemaniahdd
  • Mediainfo: Clic para Mostrar Datos Ver
  • Luchador misterioso (2018) WEB-DL 1080p Latino.mkv
    Format                      : Matroska
    Format version              : Version 4
    File size                   : 3.59 GiB
    Duration                    : 1 h 41 min
    Overall bit rate            : 5 071 kb/s
    Movie name                  : Luchador misterioso (2018) - CinemaniaHDD.Net
    Encoded date                : UTC 2019-10-24 17:58:05
    Writing application         : mkvmerge v38.0.0 ('The Silent Type') 64-bit
    Writing library             : libebml v1.3.9 + libmatroska v1.5.2

    Video
    ID                          : 1
    Format                      : AVC
    Format/Info                 : Advanced Video Codec
    Format profile              : High@L4
    Format settings             : CABAC / 5 Ref Frames
    Format settings, CABAC      : Yes
    Format settings, ReFrames   : 5 frames
    Codec ID                    : V_MPEG4/ISO/AVC
    Duration                    : 1 h 41 min
    Bit rate                    : 4 557 kb/s
    Width                       : 1 920 pixels
    Height                      : 806 pixels
    Display aspect ratio        : 2.40:1
    Frame rate mode             : Constant
    Frame rate                  : 24.000 FPS
    Color space                 : YUV
    Chroma subsampling          : 4:2:0
    Bit depth                   : 8 bits
    Scan type                   : Progressive
    Bits/(Pixel*Frame)          : 0.123
    Stream size                 : 3.22 GiB (90%)
    Title                       : CinemaniaHDD
    Language                    : English
    Default                     : Yes
    Forced                      : No
    Color range                 : Limited
    Color primaries             : BT.709
    Transfer characteristics    : BT.709
    Matrix coefficients         : BT.709

    Audio #1
    ID                          : 2
    Format                      : AC-3
    Format/Info                 : Audio Coding 3
    Commercial name             : Dolby Digital
    Codec ID                    : A_AC3
    Duration                    : 1 h 41 min
    Bit rate mode               : Constant
    Bit rate                    : 256 kb/s
    Channel(s)                  : 2 channels
    Channel layout              : L R
    Sampling rate               : 48.0 kHz
    Frame rate                  : 31.250 FPS (1536 SPF)
    Bit depth                   : 16 bits
    Compression mode            : Lossy
    Delay relative to video     : -42 ms
    Stream size                 : 185 MiB (5%)
    Title                       : Español latino [CinemaniaHDD]
    Language                    : Spanish
    Service kind                : Complete Main
    Default                     : Yes
    Forced                      : No

    Audio #2
    ID                          : 3
    Format                      : AC-3
    Format/Info                 : Audio Coding 3
    Commercial name             : Dolby Digital
    Codec ID                    : A_AC3
    Duration                    : 1 h 41 min
    Bit rate mode               : Constant
    Bit rate                    : 256 kb/s
    Channel(s)                  : 2 channels
    Channel layout              : L R
    Sampling rate               : 48.0 kHz
    Frame rate                  : 31.250 FPS (1536 SPF)
    Bit depth                   : 16 bits
    Compression mode            : Lossy
    Delay relative to video     : -42 ms
    Stream size                 : 185 MiB (5%)
    Title                       : Chino [CinemaniaHDD]
    Language                    : Chinese
    Service kind                : Complete Main
    Default                     : No
    Forced                      : No

    Text #1
    ID                          : 4
    Format                      : UTF-8
    Codec ID                    : S_TEXT/UTF8
    Codec ID/Info               : UTF-8 Plain Text
    Duration                    : 1 h 14 min
    Bit rate                    : 0 b/s
    Count of elements           : 5
    Stream size                 : 152 Bytes (0%)
    Title                       : Forzados [CinemaniaHDD]
    Language                    : Spanish
    Default                     : Yes
    Forced                      : Yes

    Text #2
    ID                          : 5
    Format                      : UTF-8
    Codec ID                    : S_TEXT/UTF8
    Codec ID/Info               : UTF-8 Plain Text
    Duration                    : 1 h 39 min
    Bit rate                    : 49 b/s
    Count of elements           : 1057
    Stream size                 : 36.2 KiB (0%)
    Title                       : Español latino [CinemaniaHDD]
    Language                    : Spanish
    Default                     : No
    Forced                      : No

    Menu
    00:00:00.000                : en:1
    00:12:28.250                : en:2
    00:25:36.833                : en:3
    00:39:44.083                : en:4
    01:05:36.583                : en:5
    01:17:12.166                : en:6
    01:37:48.457                : en:7

     

  • Peso: 3.59 GiB

Sinopsis

Un joven maltratado se lava en una playa de Hong Kong después de ser golpeado en un bote. No puede recordar quién es o qué hizo, pero pronto descubre que tiene dos habilidades importantes. Él sabe mucho sobre la cocción de alimentos, incluida la elección de ingredientes y métodos de cocción. Y él es un hábil y poderoso artista marcial. Toma el nombre de «León» (de un póster de Leonardo di Caprio en Titanic) y comienza a trabajar como repartidor para un pequeño restaurante cuyo chef, el músico callejero a tiempo parcial Jinpai, se hizo amigo. Pero a medida que el comensal se ve presionado por los estafadores de protección asociados con el siniestro Grand Dynasty Group, Leon y Jinpai se encuentran no solo luchando por salvar sus negocios sino también luchando por sus vidas. Y todo el tiempo, Leon se acerca cada vez más a recuperar su identidad …

Ficha técnica

  • Titulo original: 吃貨神探之獵獸行動
  • Fecha de lanzamiento: 02-02-2018
  • Género: Comedia

Video trailer de la película

Enlaces de descarga

Rip de Bluray

Descargar MYSTERIOUS FIGHTER Project A (2018) WEB-DL 1080p Latino




Aportes de DPeliculasHDmega la pass es:dpeliculashdmega.org Aportes de CinemaniaHD la pass es:cinemaniahdd.com
Guardado en : Comedia

Películas relacionadas

descargar MYSTERIOUS FIGHTER Project A (2018) WEB-DL 1080p Latino WEBDL 1080p gratis, MYSTERIOUS FIGHTER Project A (2018) WEB-DL 1080p Latino WEBDL mega 1 link, MYSTERIOUS FIGHTER Project A (2018) WEB-DL 1080p Latino WEBDL pelicula completa, descargar MYSTERIOUS FIGHTER Project A (2018) WEB-DL 1080p Latino WEBDL gratis en mega.

MYSTERIOUS FIGHTER Project A (2018) WEB-DL 1080p Latino pelicula full hd, MYSTERIOUS FIGHTER Project A (2018) WEB-DL 1080p Latino mega latino, MYSTERIOUS FIGHTER Project A (2018) WEB-DL 1080p Latino 4k latino, MYSTERIOUS FIGHTER Project A (2018) WEB-DL 1080p Latino pelicula completa, MYSTERIOUS FIGHTER Project A (2018) WEB-DL 1080p Latino descargar gratis, descargar MYSTERIOUS FIGHTER Project A (2018) WEB-DL 1080p Latino pelicula latino, MYSTERIOUS FIGHTER Project A (2018) WEB-DL 1080p Latino 1 link mega, MYSTERIOUS FIGHTER Project A (2018) WEB-DL 1080p Latino 1 link google drive, MYSTERIOUS FIGHTER Project A (2018) WEB-DL 1080p Latino hd 1080p latino.
Comentarios 1
  • EURI - 24 octubre, 2019

    gracias por volver a poner la configuracion que tenia la pagina.
    ahora si se entiende todo gracias