×

¿Problemas para descargar con Mozilla, EDGE? Deshabilita la opción "Abrir vinculos en una pestaña nueva" tal como lo muestra ésta imagen.

Mi Semana Con Marilyn (2011) REMUX 1080p Latino

257 vistas

Información de Mi Semana Con Marilyn (2011) REMUX 1080p Latino

Datos de la película

  • Calidad: Full 1080p
  • Audio: Se especifica abajo de la Sinopsis
  • Subtitulos: Español Latino PGS - Ingles PGS
  • Resolución: 1920x1080p
  • Formato: MKV
  • Codec: H.264
  • Encoder: CinefiloCool
  • Mediainfo: Clic para Mostrar Datos Ver
  • Mi Semana Con Marilyn (2011) REMUX 1080p Latino-CMHDD.mkv
    Format                      : Matroska
    Format version              : Version 4
    File size                   : 18.3 GiB
    Duration                    : 1 h 38 min
    Overall bit rate mode       : Variable
    Overall bit rate            : 26.5 Mb/s
    Movie name                  : My Week With Marilyn (2011) CinemaniaHDD.Net
    Encoded date                :UTC 2020-10-02 05:10:42
    Writing application         : mkvmerge v51.0.0 ('I Wish') 64-bit
    Writing library             : libebml v1.4.0 + libmatroska v1.6.2
    Attachments                 : CINEMANIAHD.png

    Video
    ID                          : 1
    Format                      : AVC
    Format/Info                 : Advanced Video Codec
    Format profile              : High@L4.1
    Format settings             : CABAC / 4 Ref Frames
    Format settings, CABAC      : Yes
    Format settings, Reference  : 4 frames
    Codec ID                    : V_MPEG4/ISO/AVC
    Duration                    : 1 h 38 min
    Bit rate mode               : Variable
    Bit rate                    : 21.8 Mb/s
    Maximum bit rate            : 37.0 Mb/s
    Width                       : 1 920 pixels
    Height                      : 1 080 pixels
    Display aspect ratio        : 16:9
    Frame rate mode             : Constant
    Frame rate                  : 23.976 (24000/1001) FPS
    Color space                 : YUV
    Chroma subsampling          : 4:2:0
    Bit depth                   : 8 bits
    Scan type                   : Progressive
    Bits/(Pixel*Frame)          : 0.439
    Stream size                 : 15.1 GiB (82%)
    Title                       : REMUX 1080p [CinemaniaHDD]
    Default                     : Yes
    Forced                      : Yes

    Audio #1
    ID                          : 2
    Format                      : E-AC-3
    Format/Info                 : Enhanced AC-3
    Commercial name             : Dolby Digital Plus
    Codec ID                    : A_EAC3
    Duration                    : 1 h 38 min
    Bit rate mode               : Constant
    Bit rate                    : 640 kb/s
    Channel(s)                  : 6 channels
    Channel layout              : L R C LFE Ls Rs
    Sampling rate               : 48.0 kHz
    Frame rate                  : 31.250 FPS (1536 SPF)
    Compression mode            : Lossy
    Stream size                 : 453 MiB (2%)
    Title                       : Español Latino EAC3 REDUB VM [CinemaniaHDD]
    Language                    : Spanish
    Service kind                : Complete Main
    Default                     : Yes
    Forced                      : Yes

    Audio #2
    ID                          : 3
    Format                      : DTS XLL
    Format/Info                 : Digital Theater Systems
    Commercial name             : DTS-HD Master Audio
    Codec ID                    : A_DTS
    Duration                    : 1 h 38 min
    Bit rate mode               : Variable
    Bit rate                    : 3 465 kb/s
    Channel(s)                  : 6 channels
    Channel layout              : C L R Ls Rs LFE
    Sampling rate               : 48.0 kHz
    Frame rate                  : 93.750 FPS (512 SPF)
    Bit depth                   : 24 bits
    Compression mode            : Lossless
    Stream size                 : 2.39 GiB (13%)
    Title                       : Ingles [CinemaniaHDD]
    Language                    : English
    Default                     : No
    Forced                      : No

    Audio #3
    ID                          : 4
    Format                      : AC-3
    Format/Info                 : Audio Coding 3
    Commercial name             : Dolby Digital
    Codec ID                    : A_AC3
    Duration                    : 1 h 38 min
    Bit rate mode               : Constant
    Bit rate                    : 256 kb/s
    Channel(s)                  : 2 channels
    Channel layout              : L R
    Sampling rate               : 48.0 kHz
    Frame rate                  : 31.250 FPS (1536 SPF)
    Compression mode            : Lossy
    Stream size                 : 181 MiB (1%)
    Title                       : Español Latino REDUB VM [CinemaniaHDD]
    Language                    : Spanish
    Service kind                : Complete Main
    Default                     : No
    Forced                      : No

    Audio #4
    ID                          : 5
    Format                      : AC-3
    Format/Info                 : Audio Coding 3
    Commercial name             : Dolby Digital
    Codec ID                    : A_AC3
    Duration                    : 1 h 38 min
    Bit rate mode               : Constant
    Bit rate                    : 256 kb/s
    Channel(s)                  : 2 channels
    Channel layout              : L R
    Sampling rate               : 48.0 kHz
    Frame rate                  : 31.250 FPS (1536 SPF)
    Compression mode            : Lossy
    Stream size                 : 181 MiB (1%)
    Title                       : Español Latino ORG TWC [CinemaniaHDD]
    Language                    : Spanish
    Service kind                : Complete Main
    Default                     : No
    Forced                      : No

    Text #1
    ID                          : 6
    Format                      : PGS
    Muxing mode                 : zlib
    Codec ID                    : S_HDMV/PGS
    Codec ID/Info               : Picture based subtitle format used on BDs/HD-DVDs
    Duration                    : 1 h 31 min
    Bit rate                    : 41.6 kb/s
    Count of elements           : 2566
    Stream size                 : 27.2 MiB (0%)
    Title                       : Español-PGS [CinemaniaHDD]
    Language                    : Spanish
    Default                     : No
    Forced                      : No

    Text #2
    ID                          : 7
    Format                      : PGS
    Muxing mode                 : zlib
    Codec ID                    : S_HDMV/PGS
    Codec ID/Info               : Picture based subtitle format used on BDs/HD-DVDs
    Duration                    : 1 h 32 min
    Bit rate                    : 44.1 kb/s
    Count of elements           : 2770
    Stream size                 : 29.1 MiB (0%)
    Title                       : Ingles-PGS [CinemaniaHDD]
    Language                    : English
    Default                     : No
    Forced                      : No

    Text #3
    ID                          : 8
    Format                      : UTF-8
    Codec ID                    : S_TEXT/UTF8
    Codec ID/Info               : UTF-8 Plain Text
    Duration                    : 1 h 31 min
    Bit rate                    : 2 b/s
    Count of elements           : 65
    Stream size                 : 1.94 KiB (0%)
    Title                       : Forzados-SRT [CinemaniaHDD]
    Language                    : Spanish
    Default                     : Yes
    Forced                      : Yes

    Text #4
    ID                          : 9
    Format                      : UTF-8
    Codec ID                    : S_TEXT/UTF8
    Codec ID/Info               : UTF-8 Plain Text
    Duration                    : 1 h 31 min
    Bit rate                    : 71 b/s
    Count of elements           : 1283
    Stream size                 : 47.6 KiB (0%)
    Title                       : Español-SRT [CinemaniaHDD]
    Language                    : Spanish
    Default                     : No
    Forced                      : No

    Menu
    00:00:00.000                : en:Chapter 1
    00:05:16.775                : en:Chapter 2
    00:11:58.259                : en:Chapter 3
    00:15:39.730                : en:Chapter 4
    00:20:12.336                : en:Chapter 5
    00:25:29.111                : en:Chapter 6
    00:31:44.903                : en:Chapter 7
    00:37:32.292                : en:Chapter 8
    00:43:30.775                : en:Chapter 9
    00:47:12.496                : en:Chapter 10
    00:53:12.022                : en:Chapter 11
    01:00:35.173                : en:Chapter 12
    01:07:16.407                : en:Chapter 13
    01:14:25.961                : en:Chapter 14
    01:21:44.775                : en:Chapter 15
    01:25:18.947                : en:Chapter 16
    01:28:23.924                : en:Chapter 17
    01:32:17.699                : en:Chapter 18

  • Peso: 18.3 GiB

Sinopsis

Descargar Mi Semana Con Marilyn (2011) REMUX 1080p Latino. En 1956, la joven actriz Marilyn Monroe (Michelle Williams) llega a Inglaterra para protagonizar con Sir Laurence Olivier (Kenneth Branagh) la película «El príncipe y la corista». Colin Clark (Eddie Redmayne), un joven de 23 años con buenos contactos, consigue un trabajo como ayudante de producción y es testigo del choque de egos y la tensa relación entre Olivier y Marilyn durante el rodaje.

Audio Español Latino AC3 2.0 Doblaje 1 [The Weinstein Company] + AC3 2.0 Doblaje 2 [Videomax] – Ingles DTS-HD 5.1 Bluray

Ficha técnica

  • Titulo original: My Week with Marilyn
  • Fecha de lanzamiento: 23-11-2011 (United Kingdom)
  • Director: Simon Curtis
  • Género: Drama, Remux

Video trailer de la película

Enlaces de descarga

Rip de Bluray

Descargar Mi Semana Con Marilyn (2011) REMUX 1080p Latino




Aportes de DPeliculasHDmega la pass es:dpeliculashdmega.org Aportes de CinemaniaHD la pass es:cinemaniahdd.com
Guardado en : Drama , Remux

Películas relacionadas

descargar Mi Semana Con Marilyn (2011) REMUX 1080p Latino Full 1080p 1080p gratis, Mi Semana Con Marilyn (2011) REMUX 1080p Latino Full 1080p mega 1 link, Mi Semana Con Marilyn (2011) REMUX 1080p Latino Full 1080p pelicula completa, descargar Mi Semana Con Marilyn (2011) REMUX 1080p Latino Full 1080p gratis en mega.

Mi Semana Con Marilyn (2011) REMUX 1080p Latino pelicula full hd, Mi Semana Con Marilyn (2011) REMUX 1080p Latino mega latino, Mi Semana Con Marilyn (2011) REMUX 1080p Latino 4k latino, Mi Semana Con Marilyn (2011) REMUX 1080p Latino pelicula completa, Mi Semana Con Marilyn (2011) REMUX 1080p Latino descargar gratis, descargar Mi Semana Con Marilyn (2011) REMUX 1080p Latino pelicula latino, Mi Semana Con Marilyn (2011) REMUX 1080p Latino 1 link mega, Mi Semana Con Marilyn (2011) REMUX 1080p Latino 1 link google drive, Mi Semana Con Marilyn (2011) REMUX 1080p Latino hd 1080p latino.
Comentarios 0