×

¿Problemas para descargar con Mozilla, EDGE? Deshabilita la opción "Abrir vinculos en una pestaña nueva" tal como lo muestra ésta imagen.

My Son (2021) AMZN WEB-DL 1080p Latino

497 vistas

Información de My Son (2021) AMZN WEB-DL 1080p Latino

Datos de la película

  • Calidad: 1080p
  • Audio: Español Latino AC3 5.1 WEB-DL - Ingles AC3 5.1 WEB-DL
  • Subtitulos: Español Latino SRT- FORZADOS SRT
  • Resolución: 1920x800
  • Formato: MKV
  • Codec: H.264
  • Encoder: cinemaniahdd
  • Mediainfo: Clic para Mostrar Datos Ver
  • My Son (2021) AMZN WEB-DL 1080p Latino [CNMNHDD].mkv
    Format                      : Matroska
    Format version              : Version 4
    File size                   : 6.48 GiB
    Duration                    : 1 h 36 min
    Overall bit rate            : 9 628 kb/s
    Movie name                  : My Son (2021) - CinemaniaHDD.Net
    Encoded date                : UTC 2022-01-22 02:12:08
    Writing application         : mkvmerge v56.1.0 ('My Friend') 64-bit
    Writing library             : libebml v1.4.2 + libmatroska v1.6.4

    Video
    ID                          : 1
    Format                      : AVC
    Format/Info                 : Advanced Video Codec
    Format profile              : High@L4
    Format settings             : CABAC / 4 Ref Frames
    Format settings, CABAC      : Yes
    Format settings, Reference  : 4 frames
    Codec ID                    : V_MPEG4/ISO/AVC
    Duration                    : 1 h 36 min
    Bit rate mode               : Constant
    Bit rate                    : 7 706 kb/s
    Nominal bit rate            : 10 000 kb/s
    Width                       : 1 920 pixels
    Height                      : 800 pixels
    Display aspect ratio        : 2.40:1
    Frame rate mode             : Constant
    Frame rate                  : 23.976 (24000/1001) FPS
    Color space                 : YUV
    Chroma subsampling          : 4:2:0
    Bit depth                   : 8 bits
    Scan type                   : Progressive
    Bits/(Pixel*Frame)          : 0.209
    Stream size                 : 5.19 GiB (80%)
    Title                       : CinemaniaHDD
    Default                     : Yes
    Forced                      : No
    Color range                 : Limited
    Color primaries             : BT.709
    Transfer characteristics    : BT.709
    Matrix coefficients         : BT.709

    Audio #1
    ID                          : 2
    Format                      : AC-3
    Format/Info                 : Audio Coding 3
    Commercial name             : Dolby Digital
    Codec ID                    : A_AC3
    Duration                    : 1 h 36 min
    Bit rate mode               : Constant
    Bit rate                    : 640 kb/s
    Channel(s)                  : 6 channels
    Channel layout              : L R C LFE Ls Rs
    Sampling rate               : 48.0 kHz
    Frame rate                  : 31.250 FPS (1536 SPF)
    Compression mode            : Lossy
    Stream size                 : 441 MiB (7%)
    Title                       : Español latino [CinemaniaHDD]
    Language                    : Spanish
    Service kind                : Complete Main
    Default                     : Yes
    Forced                      : No

    Audio #2
    ID                          : 3
    Format                      : E-AC-3
    Format/Info                 : Enhanced AC-3
    Commercial name             : Dolby Digital Plus
    Codec ID                    : A_EAC3
    Duration                    : 1 h 36 min
    Bit rate mode               : Constant
    Bit rate                    : 640 kb/s
    Channel(s)                  : 6 channels
    Channel layout              : L R C LFE Ls Rs
    Sampling rate               : 48.0 kHz
    Frame rate                  : 31.250 FPS (1536 SPF)
    Compression mode            : Lossy
    Stream size                 : 441 MiB (7%)
    Title                       : Español latino / E-AC3 [CinemaniaHDD]
    Language                    : Spanish
    Service kind                : Complete Main
    Default                     : No
    Forced                      : No

    Audio #3
    ID                          : 4
    Format                      : E-AC-3
    Format/Info                 : Enhanced AC-3
    Commercial name             : Dolby Digital Plus
    Codec ID                    : A_EAC3
    Duration                    : 1 h 36 min
    Bit rate mode               : Constant
    Bit rate                    : 640 kb/s
    Channel(s)                  : 6 channels
    Channel layout              : L R C LFE Ls Rs
    Sampling rate               : 48.0 kHz
    Frame rate                  : 31.250 FPS (1536 SPF)
    Compression mode            : Lossy
    Stream size                 : 441 MiB (7%)
    Title                       : Inglés [CinemaniaHDD]
    Language                    : English
    Service kind                : Complete Main
    Default                     : No
    Forced                      : No

    Text #1
    ID                          : 5
    Format                      : UTF-8
    Codec ID                    : S_TEXT/UTF8
    Codec ID/Info               : UTF-8 Plain Text
    Duration                    : 1 h 9 min
    Bit rate                    : 0 b/s
    Count of elements           : 9
    Stream size                 : 214 Bytes (0%)
    Title                       : Forzados [CinemaniaHDD]
    Language                    : Spanish
    Default                     : Yes
    Forced                      : Yes

    Text #2
    ID                          : 6
    Format                      : UTF-8
    Codec ID                    : S_TEXT/UTF8
    Codec ID/Info               : UTF-8 Plain Text
    Duration                    : 1 h 33 min
    Bit rate                    : 38 b/s
    Count of elements           : 841
    Stream size                 : 26.2 KiB (0%)
    Title                       : Español latino [CinemaniaHDD]
    Language                    : Spanish
    Default                     : No
    Forced                      : No

    Menu
    00:00:00.000                : Amazon Original
    00:00:06.000                : Studio Logo
    00:01:19.000                : Scene 3
    00:02:11.000                : Opening Credits
    00:03:13.000                : Scene 5
    00:06:27.000                : Scene 6
    00:09:37.000                : Scene 7
    00:12:34.000                : Scene 8
    00:12:56.000                : Scene 9
    00:16:26.000                : Scene 10
    00:19:02.000                : Scene 11
    00:27:54.000                : Scene 12
    00:29:35.000                : Scene 13
    00:31:25.000                : Scene 14
    00:33:12.000                : Scene 15
    00:38:40.000                : Scene 16
    00:40:46.000                : Scene 17
    00:47:22.000                : Scene 18
    00:50:15.000                : Scene 19
    00:53:02.000                : Scene 20
    00:55:04.000                : Scene 21
    01:00:49.000                : Scene 22
    01:04:02.000                : Scene 23
    01:04:44.000                : Scene 24
    01:05:59.000                : Scene 25
    01:07:18.000                : Scene 26
    01:08:00.000                : Scene 27
    01:08:18.000                : Scene 28
    01:09:40.000                : Scene 29
    01:15:27.000                : Scene 30
    01:16:15.000                : Scene 31
    01:16:29.000                : Scene 32
    01:17:50.000                : Scene 33
    01:18:04.000                : Scene 34
    01:20:18.000                : Scene 35
    01:20:24.000                : Scene 36
    01:21:38.000                : Scene 37
    01:22:50.000                : Scene 38
    01:24:34.000                : Scene 39
    01:29:10.000                : Scene 40
    01:30:29.000                : End Credits

     

  • Peso: 6.48 GiB

Sinopsis

Cuenta la historia de un hombre que acude a ver a su exmujer para obtener respuestas sobre la desaparición de su hijo.
Es una nueva versión de la película francesa del mismo nombre de 2017

Ficha técnica

Video trailer de la película

Enlaces de descarga

Rip de Bluray

Descargar My Son (2021) AMZN WEB-DL 1080p Latino




Aportes de DPeliculasHDmega la pass es:dpeliculashdmega.org Aportes de CinemaniaHD la pass es:cinemaniahdd.com
Guardado en : Crimen , Drama , Misterio

Películas relacionadas

  • Stromboli (2022) NF WEB-DL 1080p Latino

    Stromboli (2022) NF WEB-DL 1080p Latino

    2022
    Stromboli (2022) NF WEB-DL 1080p Latino

    1h 26m 2022

    Descargar Stromboli (2022) NF WEB-DL 1080p Latino. Sara, una mujer que se ha divorciado recientemente,...

    Director: Michiel van Erp

    Género: Drama

    Actores: Tim McInnerny

  • Infiesto (2023) NF WEB-DL 1080p Castellano

    Infiesto (2023) NF WEB-DL 1080p Castellano

    2023
    Infiesto (2023) NF WEB-DL 1080p Castellano

    1h 36m 2023

    Descargar Infiesto (2023) NF WEB-DL 1080p Castellano. Mientras el coronavirus trastoca sus vidas, dos...

    Director: Patxi Amezcua

    Género: Crimen

    Actores: Luis Zahera

  • Espiritu Libre (2023) NF WEB-DL 1080p Latino

    Espiritu Libre (2023) NF WEB-DL 1080p Latino

    2023
    Espiritu Libre (2023) NF WEB-DL 1080p Latino

    1h 49m 2023

    Descargar Espiritu Libre (2023) NF WEB-DL 1080p Latino. La película se basa en la increíble historia...

    Director: Sarah Spillane

    Género: Aventura

    Actores: Vivien Turner

  • Juego de espías (2001) 1080p Latino

    Juego de espías (2001) 1080p Latino

    2001
    Juego de espías (2001) 1080p Latino

    2h 6m 2001

    Descargar Juego de espías (2001) 1080p Latino. Corre el año 1991, y al veterano agente de la CIA Nathan...

    Director: Tony Scott

    Género: Acción

    Actores: Zsolt Zágoni

descargar My Son (2021) AMZN WEB-DL 1080p Latino 1080p 1080p gratis, My Son (2021) AMZN WEB-DL 1080p Latino 1080p mega 1 link, My Son (2021) AMZN WEB-DL 1080p Latino 1080p pelicula completa, descargar My Son (2021) AMZN WEB-DL 1080p Latino 1080p gratis en mega.

My Son (2021) AMZN WEB-DL 1080p Latino pelicula full hd, My Son (2021) AMZN WEB-DL 1080p Latino mega latino, My Son (2021) AMZN WEB-DL 1080p Latino 4k latino, My Son (2021) AMZN WEB-DL 1080p Latino pelicula completa, My Son (2021) AMZN WEB-DL 1080p Latino descargar gratis, descargar My Son (2021) AMZN WEB-DL 1080p Latino pelicula latino, My Son (2021) AMZN WEB-DL 1080p Latino 1 link mega, My Son (2021) AMZN WEB-DL 1080p Latino 1 link google drive, My Son (2021) AMZN WEB-DL 1080p Latino hd 1080p latino.
Comentarios 0