×

¿Problemas para descargar con Mozilla, EDGE? Deshabilita la opción "Abrir vinculos en una pestaña nueva" tal como lo muestra ésta imagen.

My Hero Academia: Heroes Rising (2019) REMUX 1080p Latino

276 vistas

Información de My Hero Academia: Heroes Rising (2019) REMUX 1080p Latino

Datos de la película

  • Calidad: Full 1080p
  • Audio: Se especifica abajo de la Sinopsis
  • Subtitulos: Español Latino SRT- FORZADOS SRT
  • Resolución: 1920x1080
  • Formato: MKV
  • Codec: H.264
  • Encoder: cinemaniahdd
  • Mediainfo: Clic para Mostrar Datos Ver
  • My Hero Academia Heroes Rising (2019) REMUX 1080p Latino [CNMNHDD].mkv
    Format                      : Matroska
    Format version              : Version 4
    File size                   : 29.0 GiB
    Duration                    : 1 h 44 min
    Overall bit rate mode       : Variable
    Overall bit rate            : 39.9 Mb/s
    Movie name                  : My Hero Academia Heroes Rising (2020) REMUX - CinemaniaHDD.Net
    Encoded date                : UTC 2021-03-19 00:49:45
    Writing application         : mkvmerge v51.0.0 ('I Wish') 64-bit
    Writing library             : libebml v1.4.0 + libmatroska v1.6.2
    Cover                       : Yes
    Attachments                 : cover.jpg

    Video
    ID                          : 1
    Format                      : AVC
    Format/Info                 : Advanced Video Codec
    Format profile              : High@L4.1
    Format settings             : CABAC / 4 Ref Frames
    Format settings, CABAC      : Yes
    Format settings, Reference  : 4 frames
    Codec ID                    : V_MPEG4/ISO/AVC
    Duration                    : 1 h 44 min
    Bit rate mode               : Variable
    Bit rate                    : 34.8 Mb/s
    Maximum bit rate            : 38.5 Mb/s
    Width                       : 1 920 pixels
    Height                      : 1 080 pixels
    Display aspect ratio        : 16:9
    Frame rate mode             : Constant
    Frame rate                  : 23.976 (24000/1001) FPS
    Color space                 : YUV
    Chroma subsampling          : 4:2:0
    Bit depth                   : 8 bits
    Scan type                   : Progressive
    Bits/(Pixel*Frame)          : 0.699
    Stream size                 : 25.3 GiB (87%)
    Title                       : CinemaniaHDD
    Default                     : Yes
    Forced                      : No

    Audio #1
    ID                          : 2
    Format                      : AC-3
    Format/Info                 : Audio Coding 3
    Commercial name             : Dolby Digital
    Codec ID                    : A_AC3
    Duration                    : 1 h 44 min
    Bit rate mode               : Constant
    Bit rate                    : 384 kb/s
    Channel(s)                  : 2 channels
    Channel layout              : L R
    Sampling rate               : 48.0 kHz
    Frame rate                  : 31.250 FPS (1536 SPF)
    Compression mode            : Lossy
    Stream size                 : 286 MiB (1%)
    Title                       : Español latino [CinemaniaHDD]
    Language                    : Spanish
    Service kind                : Complete Main
    Default                     : Yes
    Forced                      : No

    Audio #2
    ID                          : 3
    Format                      : MLP FBA
    Format/Info                 : Meridian Lossless Packing FBA
    Commercial name             : Dolby TrueHD
    Codec ID                    : A_TRUEHD
    Duration                    : 1 h 44 min
    Bit rate mode               : Variable
    Bit rate                    : 1 772 kb/s
    Maximum bit rate            : 2 838 kb/s
    Channel(s)                  : 6 channels
    Channel layout              : L R C LFE Ls Rs
    Sampling rate               : 48.0 kHz
    Frame rate                  : 1 200.000 FPS (40 SPF)
    Compression mode            : Lossless
    Stream size                 : 1.29 GiB (4%)
    Title                       : Inglés - TrueHD [CinemaniaHDD]
    Language                    : English
    Default                     : No
    Forced                      : No

    Audio #3
    ID                          : 4
    Format                      : AC-3
    Format/Info                 : Audio Coding 3
    Commercial name             : Dolby Digital
    Codec ID                    : A_AC3
    Duration                    : 1 h 44 min
    Bit rate mode               : Constant
    Bit rate                    : 448 kb/s
    Channel(s)                  : 6 channels
    Channel layout              : L R C LFE Ls Rs
    Sampling rate               : 48.0 kHz
    Frame rate                  : 31.250 FPS (1536 SPF)
    Compression mode            : Lossy
    Stream size                 : 334 MiB (1%)
    Title                       : Inglés - AC3 [CinemaniaHDD]
    Language                    : English
    Service kind                : Complete Main
    Default                     : No
    Forced                      : No

    Audio #4
    ID                          : 5
    Format                      : MLP FBA
    Format/Info                 : Meridian Lossless Packing FBA
    Commercial name             : Dolby TrueHD
    Codec ID                    : A_TRUEHD
    Duration                    : 1 h 44 min
    Bit rate mode               : Variable
    Bit rate                    : 1 907 kb/s
    Maximum bit rate            : 3 039 kb/s
    Channel(s)                  : 6 channels
    Channel layout              : L R C LFE Ls Rs
    Sampling rate               : 48.0 kHz
    Frame rate                  : 1 200.000 FPS (40 SPF)
    Compression mode            : Lossless
    Stream size                 : 1.39 GiB (5%)
    Title                       : Japones - TrueHD [CinemaniaHDD]
    Language                    : Japanese
    Default                     : No
    Forced                      : No

    Audio #5
    ID                          : 6
    Format                      : AC-3
    Format/Info                 : Audio Coding 3
    Commercial name             : Dolby Digital
    Codec ID                    : A_AC3
    Duration                    : 1 h 44 min
    Bit rate mode               : Constant
    Bit rate                    : 448 kb/s
    Channel(s)                  : 6 channels
    Channel layout              : L R C LFE Ls Rs
    Sampling rate               : 48.0 kHz
    Frame rate                  : 31.250 FPS (1536 SPF)
    Compression mode            : Lossy
    Stream size                 : 334 MiB (1%)
    Title                       : Japones - AC3 [CinemaniaHDD]
    Language                    : Japanese
    Service kind                : Complete Main
    Default                     : No
    Forced                      : No

    Text #1
    ID                          : 7
    Format                      : UTF-8
    Codec ID                    : S_TEXT/UTF8
    Codec ID/Info               : UTF-8 Plain Text
    Duration                    : 1 h 33 min
    Bit rate                    : 0 b/s
    Count of elements           : 13
    Stream size                 : 270 Bytes (0%)
    Title                       : Forzados [CinemaniaHDD]
    Language                    : Spanish
    Default                     : Yes
    Forced                      : Yes

    Text #2
    ID                          : 8
    Format                      : UTF-8
    Codec ID                    : S_TEXT/UTF8
    Codec ID/Info               : UTF-8 Plain Text
    Duration                    : 1 h 39 min
    Bit rate                    : 53 b/s
    Count of elements           : 1383
    Stream size                 : 39.1 KiB (0%)
    Title                       : Español latino [CinemaniaHDD]
    Language                    : Spanish
    Default                     : No
    Forced                      : Yes

    Text #3
    ID                          : 9
    Format                      : UTF-8
    Codec ID                    : S_TEXT/UTF8
    Codec ID/Info               : UTF-8 Plain Text
    Duration                    : 1 h 39 min
    Bit rate                    : 52 b/s
    Count of elements           : 1416
    Stream size                 : 38.3 KiB (0%)
    Title                       : Inglés [CinemaniaHDD]
    Language                    : English
    Default                     : No
    Forced                      : No

    Menu
    00:00:00.000                : en:Capítulo 01
    00:05:05.305                : en:Capítulo 02
    00:14:39.503                : en:Capítulo 03
    00:20:43.700                : en:Capítulo 04
    00:25:59.724                : en:Capítulo 05
    00:32:21.898                : en:Capítulo 06
    00:39:43.005                : en:Capítulo 07
    00:49:16.411                : en:Capítulo 08
    00:54:21.591                : en:Capítulo 09
    00:59:46.583                : en:Capítulo 10
    01:08:31.732                : en:Capítulo 11
    01:15:12.674                : en:Capítulo 12
    01:23:45.020                : en:Capítulo 13
    01:32:30.586                : en:Capítulo 14
    01:40:12.840                : en:Capítulo 15
    01:44:00.234                : en:Capítulo 16

     

  • Peso: 29.0 GiB

Sinopsis

Los aprendices de héroe de la academia U.A. son enviados a la pacífica, casi aislada, isla Nabu para poner en práctica el trabajo de héroe. La vida allí es tan tranquila que casi parecen vacaciones… hasta que la isla es atacada por un villano con un Don extrañamente familiar. Ahora, depende de Deku, Bakugo y el resto de la Clase 1-A proteger a los isleños de esta calamidad.

Español Latino AC3 2.0 WEB-DL – Ingles TrueHD 5.1 + AC3 BD – Japones TrueHD 5.1 + AC3 BD

Audio Español Latino extraido, no captura de tv del canal hbo plus

Ficha técnica

Video trailer de la película

Enlaces de descarga

Rip de Bluray

Descargar My Hero Academia: Heroes Rising (2019) REMUX 1080p Latino


Aportes de DPeliculasHDmega la pass es:dpeliculashdmega.org Aportes de CinemaniaHD la pass es:cinemaniahdd.com
Guardado en : Acción , Animación , Aventura , Fantasía , Remux

Películas relacionadas

descargar My Hero Academia: Heroes Rising (2019) REMUX 1080p Latino Full 1080p 1080p gratis, My Hero Academia: Heroes Rising (2019) REMUX 1080p Latino Full 1080p mega 1 link, My Hero Academia: Heroes Rising (2019) REMUX 1080p Latino Full 1080p pelicula completa, descargar My Hero Academia: Heroes Rising (2019) REMUX 1080p Latino Full 1080p gratis en mega.

My Hero Academia: Heroes Rising (2019) REMUX 1080p Latino pelicula full hd, My Hero Academia: Heroes Rising (2019) REMUX 1080p Latino mega latino, My Hero Academia: Heroes Rising (2019) REMUX 1080p Latino 4k latino, My Hero Academia: Heroes Rising (2019) REMUX 1080p Latino pelicula completa, My Hero Academia: Heroes Rising (2019) REMUX 1080p Latino descargar gratis, descargar My Hero Academia: Heroes Rising (2019) REMUX 1080p Latino pelicula latino, My Hero Academia: Heroes Rising (2019) REMUX 1080p Latino 1 link mega, My Hero Academia: Heroes Rising (2019) REMUX 1080p Latino 1 link google drive, My Hero Academia: Heroes Rising (2019) REMUX 1080p Latino hd 1080p latino.
Comentarios 0