×

¿Problemas para descargar con Mozilla, EDGE? Deshabilita la opción "Abrir vinculos en una pestaña nueva" tal como lo muestra ésta imagen.

Mi gran boda griega (2002) REMUX 1080p Latino-CMHDD

82 vistas

Información de Mi gran boda griega (2002) REMUX 1080p Latino-CMHDD

Datos de la película

  • Calidad: Full 1080p
  • Audio: Español Latino DTS 2.0 BLURAY - Ingles DTS 5.1 BLURAY
  • Subtitulos: Español Latino PGS - Ingles PGS
  • Resolución: 1920x1080p
  • Formato: MKV
  • Codec: H.264
  • Encoder: CinefiloCool
  • Mediainfo: Clic para Mostrar Datos Ver
  • My.Big.Fat.Greek.Wedding.2002.REMUX.1080p.AVC.Latino-CC@CMHDD.mkv
    Format                      : Matroska
    Format version              : Version 4
    File size                   : 24.6 GiB
    Duration                    : 1 h 34 min
    Overall bit rate mode       : Variable
    Overall bit rate            : 37.1 Mb/s
    Movie name                  : My Big Fat Greek Wedding (2002) CinemaniaHDD.Net
    Encoded date                : UTC 2023-11-05 20:56:30
    Writing application         : mkvmerge v56.1.0 ('My Friend') 64-bit
    Writing library             : libebml v1.4.2 + libmatroska v1.6.4
    Attachments                 : CINEMANIAHD.png

    Video
    ID                          : 1
    Format                      : AVC
    Format/Info                 : Advanced Video Codec
    Format profile              : High@L4.1
    Format settings             : CABAC / 4 Ref Frames
    Format settings, CABAC      : Yes
    Format settings, Reference  : 4 frames
    Codec ID                    : V_MPEG4/ISO/AVC
    Duration                    : 1 h 34 min
    Bit rate mode               : Variable
    Bit rate                    : 32.9 Mb/s
    Maximum bit rate            : 38.0 Mb/s
    Width                       : 1 920 pixels
    Height                      : 1 080 pixels
    Display aspect ratio        : 16:9
    Frame rate mode             : Constant
    Frame rate                  : 23.976 (24000/1001) FPS
    Color space                 : YUV
    Chroma subsampling          : 4:2:0
    Bit depth                   : 8 bits
    Scan type                   : Progressive
    Bits/(Pixel*Frame)          : 0.662
    Stream size                 : 21.8 GiB (89%)
    Title                       : REMUX HD1080p [CinemaniaHDD]
    Language                    : English
    Default                     : Yes
    Forced                      : Yes

    Audio #1
    ID                          : 2
    Format                      : DTS
    Format/Info                 : Digital Theater Systems
    Codec ID                    : A_DTS
    Duration                    : 1 h 34 min
    Bit rate mode               : Constant
    Bit rate                    : 768 kb/s
    Channel(s)                  : 2 channels
    Channel layout              : L R
    Sampling rate               : 48.0 kHz
    Frame rate                  : 93.750 FPS (512 SPF)
    Bit depth                   : 24 bits
    Compression mode            : Lossy
    Stream size                 : 522 MiB (2%)
    Title                       : Español Latino [CinemaniaHDD]
    Language                    : Spanish
    Default                     : Yes
    Forced                      : Yes

    Audio #2
    ID                          : 3
    Format                      : DTS XLL
    Format/Info                 : Digital Theater Systems
    Commercial name             : DTS-HD Master Audio
    Codec ID                    : A_DTS
    Duration                    : 1 h 34 min
    Bit rate mode               : Variable
    Bit rate                    : 3 362 kb/s
    Channel(s)                  : 6 channels
    Channel layout              : C L R Ls Rs LFE
    Sampling rate               : 48.0 kHz
    Frame rate                  : 93.750 FPS (512 SPF)
    Bit depth                   : 24 bits
    Compression mode            : Lossless
    Stream size                 : 2.23 GiB (9%)
    Title                       : Ingles [CinemaniaHDD]
    Language                    : English
    Default                     : No
    Forced                      : No

    Text #1
    ID                          : 4
    Format                      : PGS
    Muxing mode                 : zlib
    Codec ID                    : S_HDMV/PGS
    Codec ID/Info               : Picture based subtitle format used on BDs/HD-DVDs
    Duration                    : 1 h 32 min
    Bit rate                    : 393 b/s
    Count of elements           : 26
    Stream size                 : 268 KiB (0%)
    Title                       : Forzados-PGS [CinemaniaHDD]
    Language                    : Spanish
    Default                     : No
    Forced                      : No

    Text #2
    ID                          : 5
    Format                      : PGS
    Muxing mode                 : zlib
    Codec ID                    : S_HDMV/PGS
    Codec ID/Info               : Picture based subtitle format used on BDs/HD-DVDs
    Duration                    : 1 h 33 min
    Bit rate                    : 36.9 kb/s
    Count of elements           : 2280
    Stream size                 : 24.6 MiB (0%)
    Title                       : Español-PGS [CinemaniaHDD]
    Language                    : Spanish
    Default                     : No
    Forced                      : No

    Text #3
    ID                          : 6
    Format                      : PGS
    Muxing mode                 : zlib
    Codec ID                    : S_HDMV/PGS
    Codec ID/Info               : Picture based subtitle format used on BDs/HD-DVDs
    Duration                    : 1 h 30 min
    Bit rate                    : 46.0 kb/s
    Count of elements           : 2628
    Stream size                 : 29.7 MiB (0%)
    Title                       : Ingles [CinemaniaHDD]
    Language                    : English
    Default                     : No
    Forced                      : No

    Text #4
    ID                          : 7
    Format                      : UTF-8
    Codec ID                    : S_TEXT/UTF8
    Codec ID/Info               : UTF-8 Plain Text
    Duration                    : 1 h 32 min
    Bit rate                    : 0 b/s
    Count of elements           : 13
    Stream size                 : 299 Bytes (0%)
    Title                       : Forzados-SRT [CinemaniaHDD]
    Language                    : Spanish
    Default                     : Yes
    Forced                      : Yes

    Text #5
    ID                          : 8
    Format                      : UTF-8
    Codec ID                    : S_TEXT/UTF8
    Codec ID/Info               : UTF-8 Plain Text
    Duration                    : 1 h 33 min
    Bit rate                    : 45 b/s
    Count of elements           : 1111
    Stream size                 : 30.7 KiB (0%)
    Title                       : Español-SRT [CinemaniaHDD]
    Language                    : Spanish
    Default                     : No
    Forced                      : No

    Menu
    00:00:00.000                : Chapter 01
    00:12:03.556                : Chapter 02
    00:19:08.272                : Chapter 03
    00:24:52.115                : Chapter 04
    00:37:14.941                : Chapter 05
    00:48:08.719                : Chapter 06
    00:57:43.501                : Chapter 07
    01:16:00.639                : Chapter 08
    01:19:54.498                : Chapter 09
    01:25:05.350                : Chapter 10
    01:30:52.780                : Chapter 11

  • Peso: 24.6 GiB

Sinopsis

Descargar Mi gran boda griega (2002) REMUX 1080p Latino-CMHDD. Todos los miembros de la familia Portokalos están preocupados por Toula (Nia Vardalos). A sus treinta años sigue soltera y trabaja en el restaurante griego de sus padres. Pero es que Toula aspira a algo más y está dispuesta a conseguirlo; su familia, por desgracia, no. Lo único que necesitaba Toula para cambiar su vida eran unas cuantas clases de informática, un par de lentillas y adoptar otra actitud. Cuando empieza a trabajar en la agencia de viajes de su tía, un apuesto desconocido se siente atraído por ella. Es Ian Miller (John Corbett), un profesor de instituto alto, guapo y sin una gota de sangre griega.

Ficha técnica

Video trailer de la película

Enlaces de descarga

Rip de Bluray

Descargar Mi gran boda griega (2002) REMUX 1080p Latino-CMHDD


Aportes de DPeliculasHDmega la pass es:dpeliculashdmega.org Aportes de CinemaniaHD la pass es:cinemaniahdd.com Aportes recientes:cinemaniahdd.net
Guardado en : Comedia , Drama , Remux , Romance

Películas relacionadas

descargar Mi gran boda griega (2002) REMUX 1080p Latino-CMHDD Full 1080p 1080p gratis, Mi gran boda griega (2002) REMUX 1080p Latino-CMHDD Full 1080p mega 1 link, Mi gran boda griega (2002) REMUX 1080p Latino-CMHDD Full 1080p pelicula completa, descargar Mi gran boda griega (2002) REMUX 1080p Latino-CMHDD Full 1080p gratis en mega.

Mi gran boda griega (2002) REMUX 1080p Latino-CMHDD pelicula full hd, Mi gran boda griega (2002) REMUX 1080p Latino-CMHDD mega latino, Mi gran boda griega (2002) REMUX 1080p Latino-CMHDD 4k latino, Mi gran boda griega (2002) REMUX 1080p Latino-CMHDD pelicula completa, Mi gran boda griega (2002) REMUX 1080p Latino-CMHDD descargar gratis, descargar Mi gran boda griega (2002) REMUX 1080p Latino-CMHDD pelicula latino, Mi gran boda griega (2002) REMUX 1080p Latino-CMHDD 1 link mega, Mi gran boda griega (2002) REMUX 1080p Latino-CMHDD 1 link google drive, Mi gran boda griega (2002) REMUX 1080p Latino-CMHDD hd 1080p latino.
Comentarios 0