×

¿Problemas para descargar con Mozilla, EDGE? Deshabilita la opción "Abrir vinculos en una pestaña nueva" tal como lo muestra ésta imagen.

Mi gran boda griega 2 (2016) Full HD 1080p Latino-CMHDD

88 vistas

Información de Mi gran boda griega 2 (2016) Full HD 1080p Latino-CMHDD

Datos de la película

  • Calidad: Full 1080p
  • Audio: Español Latino DTS 5.1 BLURAY - Ingles DTS 5.1 BLURAY
  • Subtitulos: Español Latino PGS - Ingles PGS
  • Resolución: 1920x1080p
  • Formato: MKV
  • Codec: H.264
  • Encoder: CinefiloCool
  • Mediainfo: Clic para Mostrar Datos Ver
  • My.Big.Fat.Greek.Wedding.2.2016.Bluray.FullHD.1080p.x264.Latino-CC@CMHDD.mkv
    Format                      : Matroska
    Format version              : Version 4
    File size                   : 3.76 GiB
    Duration                    : 1 h 33 min
    Overall bit rate            : 5 733 kb/s
    Movie name                  : My Big Fat Greek Wedding 2 (2016) CinemaniaHDD.Net
    Encoded date                : UTC 2023-11-05 22:37:02
    Writing application         : mkvmerge v56.1.0 ('My Friend') 64-bit
    Writing library             : libebml v1.4.2 + libmatroska v1.6.4
    Attachments                 : CINEMANIAHD.png

    Video
    ID                          : 1
    Format                      : AVC
    Format/Info                 : Advanced Video Codec
    Format profile              : High@L4.1
    Format settings             : CABAC / 4 Ref Frames
    Format settings, CABAC      : Yes
    Format settings, Reference  : 4 frames
    Codec ID                    : V_MPEG4/ISO/AVC
    Duration                    : 1 h 33 min
    Bit rate                    : 3 429 kb/s
    Width                       : 1 920 pixels
    Height                      : 1 080 pixels
    Display aspect ratio        : 16:9
    Frame rate mode             : Constant
    Frame rate                  : 23.976 (24000/1001) FPS
    Color space                 : YUV
    Chroma subsampling          : 4:2:0
    Bit depth                   : 8 bits
    Scan type                   : Progressive
    Bits/(Pixel*Frame)          : 0.069
    Stream size                 : 2.25 GiB (60%)
    Title                       : Full HD1080p [CinemaniaHDD]
    Writing library             : x264 core 163 r3059 b684ebe0
    Encoding settings           : cabac=1 / ref=4 / deblock=1:0:0 / analyse=0x3:0x133 / me=tesa / subme=11 / psy=1 / psy_rd=1.00:0.00 / mixed_ref=1 / me_range=24 / chroma_me=1 / trellis=2 / 8x8dct=1 / cqm=0 / deadzone=21,11 / fast_pskip=0 / chroma_qp_offset=-2 / threads=24 / lookahead_threads=6 / sliced_threads=0 / nr=0 / decimate=1 / interlaced=0 / bluray_compat=0 / constrained_intra=0 / bframes=16 / b_pyramid=2 / b_adapt=2 / b_bias=0 / direct=3 / weightb=1 / open_gop=0 / weightp=2 / keyint=240 / keyint_min=24 / scenecut=40 / intra_refresh=0 / rc_lookahead=60 / rc=crf / mbtree=1 / crf=20.0 / qcomp=0.60 / qpmin=0 / qpmax=69 / qpstep=4 / vbv_maxrate=62500 / vbv_bufsize=78125 / crf_max=0.0 / nal_hrd=none / filler=0 / ip_ratio=1.40 / aq=1:1.00
    Default                     : Yes
    Forced                      : Yes
    Color range                 : Limited
    Color primaries             : BT.709
    Transfer characteristics    : BT.709
    Matrix coefficients         : BT.709

    Audio #1
    ID                          : 2
    Format                      : DTS
    Format/Info                 : Digital Theater Systems
    Codec ID                    : A_DTS
    Duration                    : 1 h 33 min
    Bit rate mode               : Constant
    Bit rate                    : 768 kb/s
    Channel(s)                  : 6 channels
    Channel layout              : C L R Ls Rs LFE
    Sampling rate               : 48.0 kHz
    Frame rate                  : 93.750 FPS (512 SPF)
    Bit depth                   : 24 bits
    Compression mode            : Lossy
    Stream size                 : 516 MiB (13%)
    Title                       : Español Latino [CinemaniaHDD]
    Language                    : Spanish
    Default                     : Yes
    Forced                      : Yes

    Audio #2
    ID                          : 3
    Format                      : DTS
    Format/Info                 : Digital Theater Systems
    Codec ID                    : A_DTS
    Duration                    : 1 h 33 min
    Bit rate mode               : Constant
    Bit rate                    : 1 509 kb/s
    Channel(s)                  : 6 channels
    Channel layout              : C L R Ls Rs LFE
    Sampling rate               : 48.0 kHz
    Frame rate                  : 93.750 FPS (512 SPF)
    Bit depth                   : 24 bits
    Compression mode            : Lossy
    Stream size                 : 1 013 MiB (26%)
    Title                       : Ingles [CinemaniaHDD]
    Language                    : English
    Default                     : No
    Forced                      : No

    Text #1
    ID                          : 4
    Format                      : PGS
    Muxing mode                 : zlib
    Codec ID                    : S_HDMV/PGS
    Codec ID/Info               : Picture based subtitle format used on BDs/HD-DVDs
    Duration                    : 1 h 32 min
    Bit rate                    : 587 b/s
    Count of elements           : 44
    Stream size                 : 400 KiB (0%)
    Title                       : Forzados-PGS [CinemaniaHDD]
    Language                    : Spanish
    Default                     : No
    Forced                      : No

    Text #2
    ID                          : 5
    Format                      : PGS
    Muxing mode                 : zlib
    Codec ID                    : S_HDMV/PGS
    Codec ID/Info               : Picture based subtitle format used on BDs/HD-DVDs
    Duration                    : 1 h 32 min
    Bit rate                    : 34.0 kb/s
    Count of elements           : 2940
    Stream size                 : 22.6 MiB (1%)
    Title                       : Español-PGS [CinemaniaHDD]
    Language                    : Spanish
    Default                     : No
    Forced                      : No

    Text #3
    ID                          : 6
    Format                      : PGS
    Muxing mode                 : zlib
    Codec ID                    : S_HDMV/PGS
    Codec ID/Info               : Picture based subtitle format used on BDs/HD-DVDs
    Duration                    : 1 h 27 min
    Bit rate                    : 44.7 kb/s
    Count of elements           : 3320
    Stream size                 : 28.1 MiB (1%)
    Title                       : Ingles [CinemaniaHDD]
    Language                    : English
    Default                     : No
    Forced                      : No

    Text #4
    ID                          : 7
    Format                      : UTF-8
    Codec ID                    : S_TEXT/UTF8
    Codec ID/Info               : UTF-8 Plain Text
    Duration                    : 1 h 32 min
    Bit rate                    : 0 b/s
    Count of elements           : 21
    Stream size                 : 534 Bytes (0%)
    Title                       : Forzados-SRT [CinemaniaHDD]
    Language                    : Spanish
    Default                     : Yes
    Forced                      : Yes

    Text #5
    ID                          : 8
    Format                      : UTF-8
    Codec ID                    : S_TEXT/UTF8
    Codec ID/Info               : UTF-8 Plain Text
    Duration                    : 1 h 32 min
    Bit rate                    : 54 b/s
    Count of elements           : 1449
    Stream size                 : 37.1 KiB (0%)
    Title                       : Español-SRT [CinemaniaHDD]
    Language                    : Spanish
    Default                     : No
    Forced                      : No

    Menu
    00:00:00.000                : Chapter 1
    00:05:40.923                : Chapter 2
    00:10:40.431                : Chapter 3
    00:16:29.488                : Chapter 4
    00:20:45.577                : Chapter 5
    00:25:25.273                : Chapter 6
    00:30:37.126                : Chapter 7
    00:34:18.306                : Chapter 8
    00:39:20.983                : Chapter 9
    00:45:16.714                : Chapter 10
    00:50:53.050                : Chapter 11
    00:55:24.112                : Chapter 12
    01:00:03.057                : Chapter 13
    01:06:48.212                : Chapter 14
    01:09:38.132                : Chapter 15
    01:13:38.580                : Chapter 16
    01:19:09.995                : Chapter 17
    01:21:30.802                : Chapter 18
    01:24:08.877                : Chapter 19
    01:29:48.549                : Chapter 20

  • Peso: 3.76 GiB

Sinopsis

Descargar Mi gran boda griega 2 (2016) Full HD 1080p Latino-CMHDD. Secuela de la exitosa comedia romántica ‘Mi gran boda griega’ (2002). Después de pasar la mayor parte de su tiempo enfocados en los problemas de su hija adolescente, Toula y Ian enfrentan problemas en su matrimonio mientras deben lidiar con otra boda griega, esta vez mas grande y más ruidosa.

Ficha técnica

Video trailer de la película

Enlaces de descarga

Rip de Bluray

Descargar Mi gran boda griega 2 (2016) Full HD 1080p Latino-CMHDD




Aportes de DPeliculasHDmega la pass es:dpeliculashdmega.org Aportes de CinemaniaHD la pass es:cinemaniahdd.com Aportes recientes:cinemaniahdd.net

Películas relacionadas

descargar Mi gran boda griega 2 (2016) Full HD 1080p Latino-CMHDD Full 1080p 1080p gratis, Mi gran boda griega 2 (2016) Full HD 1080p Latino-CMHDD Full 1080p mega 1 link, Mi gran boda griega 2 (2016) Full HD 1080p Latino-CMHDD Full 1080p pelicula completa, descargar Mi gran boda griega 2 (2016) Full HD 1080p Latino-CMHDD Full 1080p gratis en mega.

Mi gran boda griega 2 (2016) Full HD 1080p Latino-CMHDD pelicula full hd, Mi gran boda griega 2 (2016) Full HD 1080p Latino-CMHDD mega latino, Mi gran boda griega 2 (2016) Full HD 1080p Latino-CMHDD 4k latino, Mi gran boda griega 2 (2016) Full HD 1080p Latino-CMHDD pelicula completa, Mi gran boda griega 2 (2016) Full HD 1080p Latino-CMHDD descargar gratis, descargar Mi gran boda griega 2 (2016) Full HD 1080p Latino-CMHDD pelicula latino, Mi gran boda griega 2 (2016) Full HD 1080p Latino-CMHDD 1 link mega, Mi gran boda griega 2 (2016) Full HD 1080p Latino-CMHDD 1 link google drive, Mi gran boda griega 2 (2016) Full HD 1080p Latino-CMHDD hd 1080p latino.
Comentarios 0