×

¿Problemas para descargar con Mozilla, EDGE? Deshabilita la opción "Abrir vinculos en una pestaña nueva" tal como lo muestra ésta imagen.

Música, glamour y fama (2020) PLACEBO Full HD 1080p Latino

255 vistas

Información de Música, glamour y fama (2020) PLACEBO Full HD 1080p Latino

Datos de la película

  • Calidad: Full 1080p
  • Audio: Español Latino DTS 5.1 BLURAY - Ingles DTS 5.1 BLURAY
  • Subtitulos: Español Latino PGS - Ingles PGS
  • Resolución: 1920x1080p
  • Formato: MKV
  • Codec: H.264
  • Encoder: Melkor
  • Mediainfo: Clic para Mostrar Datos Ver
  • Música, Glamour Y Fama (2020) PLACEBO Full HD 1080p Latino.mkv
    Format                      : Matroska
    Format version              : Version 4
    File size                   : 3.71 GiB
    Duration                    : 1 h 53 min
    Overall bit rate            : 4 685 kb/s
    Movie name                  : The High Note (2020) CinemaniaHDD.Net
    Encoded date                : UTC 2020-11-02 21:44:22
    Writing application         : mkvmerge v51.0.0 ('I Wish') 64-bit
    Writing library             : libebml v1.4.0 + libmatroska v1.6.2
    Attachments                 : CINEMANIAHD.png

    Video
    ID                          : 1
    Format                      : AVC
    Format/Info                 : Advanced Video Codec
    Format profile              : High@L4.1
    Format settings             : CABAC / 4 Ref Frames
    Format settings, CABAC      : Yes
    Format settings, Reference  : 4 frames
    Codec ID                    : V_MPEG4/ISO/AVC
    Duration                    : 1 h 53 min
    Bit rate                    : 2 346 kb/s
    Width                       : 1 920 pixels
    Height                      : 1 080 pixels
    Display aspect ratio        : 16:9
    Frame rate mode             : Constant
    Frame rate                  : 23.976 (24000/1001) FPS
    Color space                 : YUV
    Chroma subsampling          : 4:2:0
    Bit depth                   : 8 bits
    Scan type                   : Progressive
    Bits/(Pixel*Frame)          : 0.047
    Stream size                 : 1.86 GiB (50%)
    Title                       : Full HD1080p [CinemaniaHDD]
    Writing library             : x264 core 157 r2935 545de2f
    Encoding settings           : cabac=1 / ref=4 / deblock=1:-1:-1 / analyse=0x3:0x133 / me=tesa / subme=11 / psy=1 / psy_rd=1.00:0.15 / mixed_ref=1 / me_range=24 / chroma_me=1 / trellis=2 / 8x8dct=1 / cqm=0 / deadzone=21,11 / fast_pskip=0 / chroma_qp_offset=-3 / threads=24 / lookahead_threads=6 / sliced_threads=0 / nr=0 / decimate=1 / interlaced=0 / bluray_compat=0 / constrained_intra=0 / bframes=16 / b_pyramid=2 / b_adapt=2 / b_bias=0 / direct=3 / weightb=1 / open_gop=0 / weightp=2 / keyint=240 / keyint_min=24 / scenecut=40 / intra_refresh=0 / rc_lookahead=60 / rc=crf / mbtree=1 / crf=20.0 / qcomp=0.60 / qpmin=0 / qpmax=69 / qpstep=4 / vbv_maxrate=62500 / vbv_bufsize=78125 / crf_max=0.0 / nal_hrd=none / filler=0 / ip_ratio=1.40 / aq=1:1.00
    Default                     : Yes
    Forced                      : No
    Color range                 : Limited
    Color primaries             : BT.709
    Transfer characteristics    : BT.709
    Matrix coefficients         : BT.709

    Audio #1
    ID                          : 2
    ID in the original source m : 4353 (0x1101)
    Format                      : DTS
    Format/Info                 : Digital Theater Systems
    Codec ID                    : A_DTS
    Duration                    : 1 h 53 min
    Bit rate mode               : Constant
    Bit rate                    : 768 kb/s
    Channel(s)                  : 6 channels
    Channel layout              : C L R Ls Rs LFE
    Sampling rate               : 48.0 kHz
    Frame rate                  : 93.750 FPS (512 SPF)
    Bit depth                   : 24 bits
    Compression mode            : Lossy
    Stream size                 : 623 MiB (16%)
    Title                       : Español Latino [CinemaniaHDD]
    Language                    : Spanish
    Default                     : Yes
    Forced                      : No
    Original source medium      : Blu-ray

    Audio #2
    ID                          : 3
    Format                      : DTS
    Format/Info                 : Digital Theater Systems
    Codec ID                    : A_DTS
    Duration                    : 1 h 53 min
    Bit rate mode               : Constant
    Bit rate                    : 1 509 kb/s
    Channel(s)                  : 6 channels
    Channel layout              : C L R Ls Rs LFE
    Sampling rate               : 48.0 kHz
    Frame rate                  : 93.750 FPS (512 SPF)
    Bit depth                   : 24 bits
    Compression mode            : Lossy
    Stream size                 : 1.20 GiB (32%)
    Title                       : Ingles [CinemaniaHDD]
    Language                    : English
    Default                     : No
    Forced                      : No

    Text #1
    ID                          : 4
    ID in the original source m : 4609 (0x1201)
    Format                      : PGS
    Muxing mode                 : zlib
    Codec ID                    : S_HDMV/PGS
    Codec ID/Info               : Picture based subtitle format used on BDs/HD-DVDs
    Duration                    : 1 h 52 min
    Bit rate                    : 55.0 kb/s
    Count of elements           : 4466
    Stream size                 : 44.2 MiB (1%)
    Title                       : Español-PGS [CinemaniaHDD]
    Language                    : Spanish
    Default                     : No
    Forced                      : No
    Original source medium      : Blu-ray

    Text #2
    ID                          : 5
    ID in the original source m : 4608 (0x1200)
    Format                      : PGS
    Muxing mode                 : zlib
    Codec ID                    : S_HDMV/PGS
    Codec ID/Info               : Picture based subtitle format used on BDs/HD-DVDs
    Duration                    : 1 h 52 min
    Bit rate                    : 58.3 kb/s
    Count of elements           : 4486
    Stream size                 : 46.9 MiB (1%)
    Title                       : Ingles-PGS [CinemaniaHDD]
    Language                    : Spanish
    Default                     : No
    Forced                      : No
    Original source medium      : Blu-ray

    Text #3
    ID                          : 6
    Format                      : UTF-8
    Codec ID                    : S_TEXT/UTF8
    Codec ID/Info               : UTF-8 Plain Text
    Duration                    : 1 s 488 ms
    Bit rate                    : 166 b/s
    Count of elements           : 1
    Stream size                 : 31.0 Bytes (0%)
    Title                       : Forzados-SRT [CinemaniaHDD]
    Language                    : Spanish
    Default                     : Yes
    Forced                      : No

    Text #4
    ID                          : 7
    Format                      : UTF-8
    Codec ID                    : S_TEXT/UTF8
    Codec ID/Info               : UTF-8 Plain Text
    Duration                    : 1 h 52 min
    Bit rate                    : 83 b/s
    Count of elements           : 2232
    Stream size                 : 68.6 KiB (0%)
    Title                       : Español-SRT [CinemaniaHDD]
    Language                    : Spanish
    Default                     : No
    Forced                      : No

    Menu
    00:00:00.000                : en:Chapter 01
    00:05:50.600                : en:Chapter 02
    00:11:20.513                : en:Chapter 03
    00:18:02.998                : en:Chapter 04
    00:24:50.780                : en:Chapter 05
    00:30:51.975                : en:Chapter 06
    00:37:18.152                : en:Chapter 07
    00:40:48.654                : en:Chapter 08
    00:45:54.960                : en:Chapter 09
    00:51:03.268                : en:Chapter 10
    00:56:03.026                : en:Chapter 11
    01:02:18.609                : en:Chapter 12
    01:07:35.342                : en:Chapter 13
    01:12:58.707                : en:Chapter 14
    01:19:20.255                : en:Chapter 15
    01:24:19.179                : en:Chapter 16
    01:29:03.379                : en:Chapter 17
    01:33:42.950                : en:Chapter 18
    01:42:14.002                : en:Chapter 19
    01:46:39.768                : en:Chapter 20

  • Peso: 3.71 GiB

Sinopsis

Descargar Música, glamour y fama (2020) PLACEBO Full HD 1080p Latino. Ambientada en la vibrante escena musical de Los Ángeles, cuenta la historia de Grace Davis (Tracee Ellis Ross), una superestrella cuyo talento y ego han alcanzado límites insospechados. Maggie (Dakota Johnson) es su asistente, una chica con más trabajo del que puede abarcar y en la que sigue latente su sueño de la infancia: convertirse en productora musical. Cuando el manager de Grace (Ice Cube) le ofrece una oportunidad que podría alterar el rumbo de su carrera, Maggie y Grace comienzan a urdir un complicado plan con el que están decididas a cambiar para siempre sus vidas.

Ficha técnica

Video trailer de la película

Enlaces de descarga

Rip de Bluray

Descargar Música, glamour y fama (2020) PLACEBO Full HD 1080p Latino




Aportes de DPeliculasHDmega la pass es:dpeliculashdmega.org Aportes de CinemaniaHD la pass es:cinemaniahdd.com

Películas relacionadas

descargar Música, glamour y fama (2020) PLACEBO Full HD 1080p Latino Full 1080p 1080p gratis, Música, glamour y fama (2020) PLACEBO Full HD 1080p Latino Full 1080p mega 1 link, Música, glamour y fama (2020) PLACEBO Full HD 1080p Latino Full 1080p pelicula completa, descargar Música, glamour y fama (2020) PLACEBO Full HD 1080p Latino Full 1080p gratis en mega.

Música, glamour y fama (2020) PLACEBO Full HD 1080p Latino pelicula full hd, Música, glamour y fama (2020) PLACEBO Full HD 1080p Latino mega latino, Música, glamour y fama (2020) PLACEBO Full HD 1080p Latino 4k latino, Música, glamour y fama (2020) PLACEBO Full HD 1080p Latino pelicula completa, Música, glamour y fama (2020) PLACEBO Full HD 1080p Latino descargar gratis, descargar Música, glamour y fama (2020) PLACEBO Full HD 1080p Latino pelicula latino, Música, glamour y fama (2020) PLACEBO Full HD 1080p Latino 1 link mega, Música, glamour y fama (2020) PLACEBO Full HD 1080p Latino 1 link google drive, Música, glamour y fama (2020) PLACEBO Full HD 1080p Latino hd 1080p latino.
Comentarios 0