×

¿Problemas para descargar con Mozilla, EDGE? Deshabilita la opción "Abrir vinculos en una pestaña nueva" tal como lo muestra ésta imagen.

Música, glamour y fama (2020) HD 1080p Latino

263 vistas

Información de Música, glamour y fama (2020) HD 1080p Latino

Datos de la película

  • Calidad: 1080p
  • Audio: Español Latino AC3 5.1 BLURAY - Ingles AC3 5.1 BLURAY
  • Subtitulos: Español Latino SRT - Ingles SRT
  • Resolución: 1920x804p
  • Formato: MKV
  • Codec: H.264
  • Encoder: Melkor
  • Mediainfo: Clic para Mostrar Datos Ver
  • Música, Glamour Y Fama (2020) HD 1080p Latino.mkv
    Format                      : Matroska
    Format version              : Version 4
    File size                   : 3.64 GiB
    Duration                    : 1 h 53 min
    Overall bit rate            : 4 590 kb/s
    Movie name                  : The High Note (2020) CinemaniaHDD.Net
    Encoded date                : UTC 2020-11-02 21:47:52
    Writing application         : mkvmerge v51.0.0 ('I Wish') 64-bit
    Writing library             : libebml v1.4.0 + libmatroska v1.6.2
    Attachments                 : CINEMANIAHD.png

    Video
    ID                          : 1
    Format                      : AVC
    Format/Info                 : Advanced Video Codec
    Format profile              : High@L4.1
    Format settings             : CABAC / 5 Ref Frames
    Format settings, CABAC      : Yes
    Format settings, Reference  : 5 frames
    Codec ID                    : V_MPEG4/ISO/AVC
    Duration                    : 1 h 53 min
    Bit rate                    : 3 500 kb/s
    Width                       : 1 920 pixels
    Height                      : 804 pixels
    Display aspect ratio        : 2.40:1
    Frame rate mode             : Constant
    Frame rate                  : 23.976 (24000/1001) FPS
    Color space                 : YUV
    Chroma subsampling          : 4:2:0
    Bit depth                   : 8 bits
    Scan type                   : Progressive
    Bits/(Pixel*Frame)          : 0.095
    Stream size                 : 2.77 GiB (76%)
    Title                       : HD1080p [CinemaniaHDD]
    Writing library             : x264 core 157 r2935 545de2f
    Encoding settings           : cabac=1 / ref=5 / deblock=1:-1:-1 / analyse=0x3:0x133 / me=umh / subme=9 / psy=1 / psy_rd=1.00:0.15 / mixed_ref=1 / me_range=16 / chroma_me=1 / trellis=2 / 8x8dct=1 / cqm=0 / deadzone=21,11 / fast_pskip=1 / chroma_qp_offset=-3 / threads=24 / lookahead_threads=2 / sliced_threads=0 / nr=0 / decimate=1 / interlaced=0 / bluray_compat=0 / constrained_intra=0 / bframes=3 / b_pyramid=2 / b_adapt=2 / b_bias=0 / direct=3 / weightb=1 / open_gop=0 / weightp=2 / keyint=240 / keyint_min=24 / scenecut=40 / intra_refresh=0 / rc_lookahead=60 / rc=2pass / mbtree=1 / bitrate=3500 / ratetol=1.0 / qcomp=0.60 / qpmin=0 / qpmax=69 / qpstep=4 / cplxblur=20.0 / qblur=0.5 / vbv_maxrate=62500 / vbv_bufsize=78125 / nal_hrd=none / filler=0 / ip_ratio=1.40 / aq=1:1.00
    Default                     : Yes
    Forced                      : No
    Color range                 : Limited
    Color primaries             : BT.709
    Transfer characteristics    : BT.709
    Matrix coefficients         : BT.709

    Audio #1
    ID                          : 2
    Format                      : AC-3
    Format/Info                 : Audio Coding 3
    Commercial name             : Dolby Digital
    Codec ID                    : A_AC3
    Duration                    : 1 h 53 min
    Bit rate mode               : Constant
    Bit rate                    : 640 kb/s
    Channel(s)                  : 6 channels
    Channel layout              : L R C LFE Ls Rs
    Sampling rate               : 48.0 kHz
    Frame rate                  : 31.250 FPS (1536 SPF)
    Compression mode            : Lossy
    Delay relative to video     : -5 ms
    Stream size                 : 519 MiB (14%)
    Title                       : Español Latino [CinemaniaHDD]
    Language                    : Spanish
    Service kind                : Complete Main
    Default                     : Yes
    Forced                      : No

    Audio #2
    ID                          : 3
    Format                      : AC-3
    Format/Info                 : Audio Coding 3
    Commercial name             : Dolby Digital
    Codec ID                    : A_AC3
    Duration                    : 1 h 53 min
    Bit rate mode               : Constant
    Bit rate                    : 448 kb/s
    Channel(s)                  : 6 channels
    Channel layout              : L R C LFE Ls Rs
    Sampling rate               : 48.0 kHz
    Frame rate                  : 31.250 FPS (1536 SPF)
    Compression mode            : Lossy
    Delay relative to video     : -5 ms
    Stream size                 : 363 MiB (10%)
    Title                       : Ingles [CinemaniaHDD]
    Language                    : English
    Service kind                : Complete Main
    Default                     : No
    Forced                      : No

    Text #1
    ID                          : 4
    Format                      : UTF-8
    Codec ID                    : S_TEXT/UTF8
    Codec ID/Info               : UTF-8 Plain Text
    Duration                    : 1 s 488 ms
    Bit rate                    : 166 b/s
    Count of elements           : 1
    Stream size                 : 31.0 Bytes (0%)
    Title                       : Forzados-SRT [CinemaniaHDD]
    Language                    : Spanish
    Default                     : Yes
    Forced                      : No

    Text #2
    ID                          : 5
    Format                      : UTF-8
    Codec ID                    : S_TEXT/UTF8
    Codec ID/Info               : UTF-8 Plain Text
    Duration                    : 1 h 52 min
    Bit rate                    : 83 b/s
    Count of elements           : 2232
    Stream size                 : 68.6 KiB (0%)
    Title                       : Español-SRT [CinemaniaHDD]
    Language                    : Spanish
    Default                     : No
    Forced                      : No

    Text #3
    ID                          : 6
    Format                      : UTF-8
    Codec ID                    : S_TEXT/UTF8
    Codec ID/Info               : UTF-8 Plain Text
    Duration                    : 1 h 52 min
    Bit rate                    : 81 b/s
    Count of elements           : 2061
    Stream size                 : 67.2 KiB (0%)
    Title                       : Ingles-SRT [CinemaniaHDD]
    Language                    : English
    Default                     : No
    Forced                      : No

    Menu
    00:00:00.000                : :Chapter 1
    00:05:50.684                : :Chapter 2
    00:11:20.597                : :Chapter 3
    00:18:03.040                : :Chapter 4
    00:24:50.781                : :Chapter 5
    00:30:52.059                : :Chapter 6
    00:37:18.153                : :Chapter 7
    00:40:48.655                : :Chapter 8
    00:45:54.961                : :Chapter 9
    00:51:03.269                : :Chapter 10
    00:56:03.110                : :Chapter 11
    01:02:18.610                : :Chapter 12
    01:07:35.343                : :Chapter 13
    01:12:58.708                : :Chapter 14
    01:19:20.256                : :Chapter 15
    01:24:19.263                : :Chapter 16
    01:29:03.380                : :Chapter 17
    01:33:42.951                : :Chapter 18
    01:42:14.003                : :Chapter 19
    01:46:39.852                : :Chapter 20

  • Peso: 3.64 GiB

Sinopsis

Descargar Música, glamour y fama (2020) HD 1080p Latino. Ambientada en la vibrante escena musical de Los Ángeles, cuenta la historia de Grace Davis (Tracee Ellis Ross), una superestrella cuyo talento y ego han alcanzado límites insospechados. Maggie (Dakota Johnson) es su asistente, una chica con más trabajo del que puede abarcar y en la que sigue latente su sueño de la infancia: convertirse en productora musical. Cuando el manager de Grace (Ice Cube) le ofrece una oportunidad que podría alterar el rumbo de su carrera, Maggie y Grace comienzan a urdir un complicado plan con el que están decididas a cambiar para siempre sus vidas.

Ficha técnica

Video trailer de la película

Enlaces de descarga

Rip de Bluray

Descargar Música, glamour y fama (2020) HD 1080p Latino




Aportes de DPeliculasHDmega la pass es:dpeliculashdmega.org Aportes de CinemaniaHD la pass es:cinemaniahdd.com
Guardado en : Comedia , Drama , HD 1080p , Música , Romance

Películas relacionadas

descargar Música, glamour y fama (2020) HD 1080p Latino 1080p 1080p gratis, Música, glamour y fama (2020) HD 1080p Latino 1080p mega 1 link, Música, glamour y fama (2020) HD 1080p Latino 1080p pelicula completa, descargar Música, glamour y fama (2020) HD 1080p Latino 1080p gratis en mega.

Música, glamour y fama (2020) HD 1080p Latino pelicula full hd, Música, glamour y fama (2020) HD 1080p Latino mega latino, Música, glamour y fama (2020) HD 1080p Latino 4k latino, Música, glamour y fama (2020) HD 1080p Latino pelicula completa, Música, glamour y fama (2020) HD 1080p Latino descargar gratis, descargar Música, glamour y fama (2020) HD 1080p Latino pelicula latino, Música, glamour y fama (2020) HD 1080p Latino 1 link mega, Música, glamour y fama (2020) HD 1080p Latino 1 link google drive, Música, glamour y fama (2020) HD 1080p Latino hd 1080p latino.
Comentarios 0