×

¿Problemas para descargar con Mozilla, EDGE? Deshabilita la opción "Abrir vinculos en una pestaña nueva" tal como lo muestra ésta imagen.

Asesinato en el Expreso de Oriente (2017) REMUX 4K UHD HDR Latino

600 vistas

Información de Asesinato en el Expreso de Oriente (2017) REMUX 4K UHD HDR Latino

Datos de la película

  • Calidad: 4K HDR
  • Audio: Se especifica abajo de la Sinopsis
  • Subtitulos: Español Latino PGS - Ingles PGS
  • Resolución: 3840x2160p
  • Formato: MKV
  • Codec: HEVC
  • Encoder: CinefiloCool
  • Mediainfo: Clic para Mostrar Datos Ver
  • Asesinato en el Expreso de Oriente (2017) REMUX UHD HDR Latino-CMHDD.mkv
    Format                      : Matroska
    Format version              : Version 4
    File size                   : 48.2 GiB
    Duration                    : 1 h 53 min
    Overall bit rate mode       : Variable
    Overall bit rate            : 60.5 Mb/s
    Movie name                  : Murder On The Orient Express (2017) CinemaniaHDD.Net
    Encoded date                : UTC 2021-03-10 05:25:19
    Writing application         : mkvmerge v51.0.0 ('I Wish') 64-bit
    Writing library             : libebml v1.4.0 + libmatroska v1.6.2
    Attachments                 : CINEMANIAHD.png

    Video
    ID                          : 1
    Format                      : HEVC
    Format/Info                 : High Efficiency Video Coding
    Format profile              : Main 10@L5.1@High
    HDR format                  : SMPTE ST 2086, HDR10 compatible
    Codec ID                    : V_MPEGH/ISO/HEVC
    Duration                    : 1 h 53 min
    Bit rate                    : 55.2 Mb/s
    Width                       : 3 840 pixels
    Height                      : 2 160 pixels
    Display aspect ratio        : 16:9
    Frame rate mode             : Constant
    Frame rate                  : 23.976 (24000/1001) FPS
    Color space                 : YUV
    Chroma subsampling          : 4:2:0 (Type 2)
    Bit depth                   : 10 bits
    Bits/(Pixel*Frame)          : 0.278
    Stream size                 : 43.9 GiB (91%)
    Title                       : REMUX 2160p HDR [Bluray]
    Writing library             : ATEME Titan File 3.8.12 (4.8.12.0)      
    Language                    : English
    Default                     : Yes
    Forced                      : No
    Color range                 : Limited
    Color primaries             : BT.2020
    Transfer characteristics    : PQ
    Matrix coefficients         : BT.2020 non-constant
    Mastering display color pri : Display P3
    Mastering display luminance : min: 0.0050 cd/m2, max: 1000 cd/m2

    Audio #1
    ID                          : 2
    Format                      : AC-3
    Format/Info                 : Audio Coding 3
    Commercial name             : Dolby Digital
    Codec ID                    : A_AC3
    Duration                    : 1 h 53 min
    Bit rate mode               : Constant
    Bit rate                    : 640 kb/s
    Channel(s)                  : 6 channels
    Channel layout              : L R C LFE Ls Rs
    Sampling rate               : 48.0 kHz
    Frame rate                  : 31.250 FPS (1536 SPF)
    Compression mode            : Lossy
    Delay relative to video     : 31 ms
    Stream size                 : 522 MiB (1%)
    Title                       : Español Latino [CinemaniaHDD]
    Language                    : Spanish
    Service kind                : Complete Main
    Default                     : Yes
    Forced                      : No

    Audio #2
    ID                          : 3
    Format                      : MLP FBA 16-ch
    Format/Info                 : Meridian Lossless Packing FBA with 16-channel presentation
    Commercial name             : Dolby TrueHD with Dolby Atmos
    Codec ID                    : A_TRUEHD
    Duration                    : 1 h 53 min
    Bit rate mode               : Variable
    Bit rate                    : 4 139 kb/s
    Maximum bit rate            : 7 662 kb/s
    Channel(s)                  : 8 channels
    Channel layout              : L R C LFE Ls Rs Lb Rb
    Sampling rate               : 48.0 kHz
    Frame rate                  : 1 200.000 FPS (40 SPF)
    Compression mode            : Lossless
    Delay relative to video     : 32 ms
    Stream size                 : 3.29 GiB (7%)
    Title                       : Ingles [CinemaniaHDD]
    Language                    : English
    Default                     : No
    Forced                      : No
    Number of dynamic objects   : 13
    Bed channel count           : 1 channel
    Bed channel configuration   : LFE

    Audio #3
    ID                          : 4
    Format                      : AC-3
    Format/Info                 : Audio Coding 3
    Commercial name             : Dolby Digital
    Codec ID                    : A_AC3
    Duration                    : 1 h 53 min
    Bit rate mode               : Constant
    Bit rate                    : 448 kb/s
    Channel(s)                  : 6 channels
    Channel layout              : L R C LFE Ls Rs
    Sampling rate               : 48.0 kHz
    Frame rate                  : 31.250 FPS (1536 SPF)
    Compression mode            : Lossy
    Stream size                 : 365 MiB (1%)
    Title                       : Ingles AC3 [CinemaniaHDD]
    Language                    : English
    Service kind                : Complete Main
    Default                     : No
    Forced                      : No

    Text #1
    ID                          : 5
    Format                      : PGS
    Muxing mode                 : zlib
    Codec ID                    : S_HDMV/PGS
    Codec ID/Info               : Picture based subtitle format used on BDs/HD-DVDs
    Duration                    : 1 h 50 min
    Bit rate                    : 498 b/s
    Count of elements           : 52
    Stream size                 : 402 KiB (0%)
    Title                       : Sub_Forzados [PGS]
    Language                    : Spanish
    Default                     : Yes
    Forced                      : No

    Text #2
    ID                          : 6
    Format                      : PGS
    Muxing mode                 : zlib
    Codec ID                    : S_HDMV/PGS
    Codec ID/Info               : Picture based subtitle format used on BDs/HD-DVDs
    Duration                    : 1 h 53 min
    Bit rate                    : 41.9 kb/s
    Count of elements           : 3138
    Stream size                 : 33.9 MiB (0%)
    Title                       : Sub_Esp [PGS]
    Language                    : Spanish
    Default                     : No
    Forced                      : No

    Text #3
    ID                          : 7
    Format                      : PGS
    Muxing mode                 : zlib
    Codec ID                    : S_HDMV/PGS
    Codec ID/Info               : Picture based subtitle format used on BDs/HD-DVDs
    Duration                    : 1 h 45 min
    Bit rate                    : 51.1 kb/s
    Count of elements           : 3958
    Stream size                 : 38.7 MiB (0%)
    Title                       : Sub_Eng [PGS]
    Language                    : English
    Default                     : No
    Forced                      : No

    Text #4
    ID                          : 8
    Format                      : UTF-8
    Codec ID                    : S_TEXT/UTF8
    Codec ID/Info               : UTF-8 Plain Text
    Duration                    : 1 h 33 min
    Bit rate                    : 0 b/s
    Count of elements           : 25
    Stream size                 : 582 Bytes (0%)
    Title                       : Sub_Forzados
    Language                    : Spanish
    Default                     : No
    Forced                      : No

    Text #5
    ID                          : 9
    Format                      : UTF-8
    Codec ID                    : S_TEXT/UTF8
    Codec ID/Info               : UTF-8 Plain Text
    Duration                    : 1 h 45 min
    Bit rate                    : 73 b/s
    Count of elements           : 1574
    Stream size                 : 57.0 KiB (0%)
    Title                       : Sub_Esp
    Language                    : Spanish
    Default                     : No
    Forced                      : No

    Menu
    00:00:00.000                : en:Chapter 1
    00:03:06.144                : en:Chapter 2
    00:06:42.193                : en:Chapter 3
    00:11:44.745                : en:Chapter 4
    00:18:26.188                : en:Chapter 5
    00:24:53.658                : en:Chapter 6
    00:33:14.158                : en:Chapter 7
    00:37:47.515                : en:Chapter 8
    00:43:16.510                : en:Chapter 9
    00:46:24.865                : en:Chapter 10
    00:51:23.580                : en:Chapter 11
    00:55:52.015                : en:Chapter 12
    01:00:03.182                : en:Chapter 13
    01:05:39.226                : en:Chapter 14
    01:10:40.152                : en:Chapter 15
    01:14:17.578                : en:Chapter 16
    01:18:05.055                : en:Chapter 17
    01:21:12.284                : en:Chapter 18
    01:24:39.365                : en:Chapter 19
    01:28:37.854                : en:Chapter 20
    01:32:28.376                : en:Chapter 21
    01:37:04.652                : en:Chapter 22
    01:40:30.024                : en:Chapter 23
    01:46:49.903                : en:Chapter 24

  • Peso: 48.2 GiB

Sinopsis

Descargar Asesinato en el Expreso de Oriente (2017) REMUX 4K UHD HDR Latino. Durante un viaje en el legendario tren Orient Express, el detective belga Hercules Poirot investiga un asesinato cometido en el trayecto, y a resultas del cual todos los pasajeros del tren son sospechosos del mismo.

Audio Español Latino AC3 5.1 Bluray – Ingles TrueHD 7.1 + AC3 5.1 bluray

 

RESUBIDO!!!
Disponible Solo para Usuarios VIP!! 🙂

Ficha técnica

Video trailer de la película

Enlaces de descarga

Rip de Bluray

Descargar Asesinato en el Expreso de Oriente (2017) REMUX 4K UHD HDR Latino


Aportes de DPeliculasHDmega la pass es:dpeliculashdmega.org Aportes de CinemaniaHD la pass es:cinemaniahdd.com
Guardado en : 4K HDR , 4K UHD , Crimen , Drama , Misterio , Remux

Películas relacionadas

descargar Asesinato en el Expreso de Oriente (2017) REMUX 4K UHD HDR Latino 4K HDR 1080p gratis, Asesinato en el Expreso de Oriente (2017) REMUX 4K UHD HDR Latino 4K HDR mega 1 link, Asesinato en el Expreso de Oriente (2017) REMUX 4K UHD HDR Latino 4K HDR pelicula completa, descargar Asesinato en el Expreso de Oriente (2017) REMUX 4K UHD HDR Latino 4K HDR gratis en mega.

Asesinato en el Expreso de Oriente (2017) REMUX 4K UHD HDR Latino pelicula full hd, Asesinato en el Expreso de Oriente (2017) REMUX 4K UHD HDR Latino mega latino, Asesinato en el Expreso de Oriente (2017) REMUX 4K UHD HDR Latino 4k latino, Asesinato en el Expreso de Oriente (2017) REMUX 4K UHD HDR Latino pelicula completa, Asesinato en el Expreso de Oriente (2017) REMUX 4K UHD HDR Latino descargar gratis, descargar Asesinato en el Expreso de Oriente (2017) REMUX 4K UHD HDR Latino pelicula latino, Asesinato en el Expreso de Oriente (2017) REMUX 4K UHD HDR Latino 1 link mega, Asesinato en el Expreso de Oriente (2017) REMUX 4K UHD HDR Latino 1 link google drive, Asesinato en el Expreso de Oriente (2017) REMUX 4K UHD HDR Latino hd 1080p latino.
Comentarios 0