×

¿Problemas para descargar con Mozilla, EDGE? Deshabilita la opción "Abrir vinculos en una pestaña nueva" tal como lo muestra ésta imagen.

Asesinato en el Expreso de Oriente (2017) Full HD 1080p Latino

7.416 vistas

Información de Asesinato en el Expreso de Oriente (2017) Full HD 1080p Latino

Datos de la película

  • Calidad: Full 1080p
  • Audio: Español Latino AC3 5.1 BLURAY - Ingles DTS 5.1 BLURAY
  • Subtitulos: Español Latino PGS - Ingles PGS
  • Resolución: 1920X1080p
  • Formato: MKV
  • Codec: H.264
  • Encoder: Dracarys | CinefiloCool
  • Mediainfo: Clic para Mostrar Datos Ver
  • Asesinato en el Expreso de Oriente (2017) Full HD 1080p Latino-CMHDD.mkv
    Format                      : Matroska
    Format version              : Version 4
    File size                   : 7.67 GiB
    Duration                    : 1 h 53 min
    Overall bit rate            : 9 639 kb/s
    Movie name                  : Murder on the Orient Express (2017) CinemaniaHDD.Net
    Encoded date                : UTC 2021-03-09 05:21:51
    Writing application         : mkvmerge v51.0.0 ('I Wish') 64-bit
    Writing library             : libebml v1.4.0 + libmatroska v1.6.2
    Attachments                 : CINEMANIAHD.png

    Video
    ID                          : 1
    Format                      : AVC
    Format/Info                 : Advanced Video Codec
    Format profile              : High@L4.1
    Format settings             : CABAC / 4 Ref Frames
    Format settings, CABAC      : Yes
    Format settings, Reference  : 4 frames
    Codec ID                    : V_MPEG4/ISO/AVC
    Duration                    : 1 h 53 min
    Bit rate                    : 7 652 kb/s
    Width                       : 1 920 pixels
    Height                      : 1 080 pixels
    Display aspect ratio        : 16:9
    Frame rate mode             : Constant
    Frame rate                  : 23.976 (24000/1001) FPS
    Color space                 : YUV
    Chroma subsampling          : 4:2:0
    Bit depth                   : 8 bits
    Scan type                   : Progressive
    Bits/(Pixel*Frame)          : 0.154
    Stream size                 : 6.09 GiB (79%)
    Title                       : Full HD1080p [CinemaniaHDD]
    Writing library             : x264 core 157 r2935 545de2f
    Encoding settings           : cabac=1 / ref=4 / deblock=1:0:0 / analyse=0x3:0x133 / me=tesa / subme=11 / psy=1 / psy_rd=1.00:0.00 / mixed_ref=1 / me_range=24 / chroma_me=1 / trellis=2 / 8x8dct=1 / cqm=0 / deadzone=21,11 / fast_pskip=0 / chroma_qp_offset=-2 / threads=24 / lookahead_threads=6 / sliced_threads=0 / nr=0 / decimate=1 / interlaced=0 / bluray_compat=0 / constrained_intra=0 / bframes=16 / b_pyramid=2 / b_adapt=2 / b_bias=0 / direct=3 / weightb=1 / open_gop=0 / weightp=2 / keyint=240 / keyint_min=24 / scenecut=40 / intra_refresh=0 / rc_lookahead=60 / rc=crf / mbtree=1 / crf=18.0 / qcomp=0.60 / qpmin=0 / qpmax=69 / qpstep=4 / vbv_maxrate=62500 / vbv_bufsize=78125 / crf_max=0.0 / nal_hrd=none / filler=0 / ip_ratio=1.40 / aq=1:1.00
    Default                     : Yes
    Forced                      : Yes
    Color range                 : Limited
    Color primaries             : BT.709
    Transfer characteristics    : BT.709
    Matrix coefficients         : BT.709

    Audio #1
    ID                          : 2
    Format                      : AC-3
    Format/Info                 : Audio Coding 3
    Commercial name             : Dolby Digital
    Codec ID                    : A_AC3
    Duration                    : 1 h 53 min
    Bit rate mode               : Constant
    Bit rate                    : 448 kb/s
    Channel(s)                  : 6 channels
    Channel layout              : L R C LFE Ls Rs
    Sampling rate               : 48.0 kHz
    Frame rate                  : 31.250 FPS (1536 SPF)
    Compression mode            : Lossy
    Stream size                 : 365 MiB (5%)
    Title                       : Español Latino [CinemaniaHDD]
    Language                    : Spanish
    Service kind                : Complete Main
    Default                     : Yes
    Forced                      : Yes

    Audio #2
    ID                          : 3
    Format                      : DTS ES
    Format/Info                 : Digital Theater Systems
    Commercial name             : DTS-ES Matrix
    Codec ID                    : A_DTS
    Duration                    : 1 h 53 min
    Bit rate mode               : Constant
    Bit rate                    : 1 509 kb/s
    Channel(s)                  : 6 channels
    Channel(s)_Original         : 7 channels
    ChannelLayout_Original      : C L R Ls Rs Cs LFE
    Sampling rate               : 48.0 kHz
    Frame rate                  : 93.750 FPS (512 SPF)
    Bit depth                   : 24 bits
    Compression mode            : Lossy
    Stream size                 : 1.20 GiB (16%)
    Title                       : Ingles [CinemaniaHDD]
    Language                    : English
    Default                     : No
    Forced                      : No

    Text #1
    ID                          : 4
    Format                      : PGS
    Muxing mode                 : zlib
    Codec ID                    : S_HDMV/PGS
    Codec ID/Info               : Picture based subtitle format used on BDs/HD-DVDs
    Duration                    : 1 h 50 min
    Bit rate                    : 498 b/s
    Count of elements           : 52
    Stream size                 : 402 KiB (0%)
    Title                       : Forzados-PGS [CinemaniaHDD]
    Language                    : Spanish
    Default                     : Yes
    Forced                      : Yes

    Text #2
    ID                          : 5
    Format                      : PGS
    Muxing mode                 : zlib
    Codec ID                    : S_HDMV/PGS
    Codec ID/Info               : Picture based subtitle format used on BDs/HD-DVDs
    Duration                    : 1 h 53 min
    Bit rate                    : 41.9 kb/s
    Count of elements           : 3138
    Stream size                 : 33.9 MiB (0%)
    Title                       : Español-PGS [CinemaniaHDD]
    Language                    : Spanish
    Default                     : No
    Forced                      : No

    Text #3
    ID                          : 6
    Format                      : PGS
    Muxing mode                 : zlib
    Codec ID                    : S_HDMV/PGS
    Codec ID/Info               : Picture based subtitle format used on BDs/HD-DVDs
    Duration                    : 1 h 45 min
    Bit rate                    : 51.1 kb/s
    Count of elements           : 3958
    Stream size                 : 38.7 MiB (0%)
    Title                       : Ingles-PGS [CinemaniaHDD]
    Language                    : English
    Default                     : No
    Forced                      : No

    Text #4
    ID                          : 7
    Format                      : UTF-8
    Codec ID                    : S_TEXT/UTF8
    Codec ID/Info               : UTF-8 Plain Text
    Duration                    : 1 h 33 min
    Bit rate                    : 0 b/s
    Count of elements           : 25
    Stream size                 : 582 Bytes (0%)
    Title                       : Forzados-SRT [CinemaniaHDD]
    Language                    : Spanish
    Default                     : No
    Forced                      : No

    Text #5
    ID                          : 8
    Format                      : UTF-8
    Codec ID                    : S_TEXT/UTF8
    Codec ID/Info               : UTF-8 Plain Text
    Duration                    : 1 h 45 min
    Bit rate                    : 73 b/s
    Count of elements           : 1574
    Stream size                 : 57.0 KiB (0%)
    Title                       : Español-SRT [CinemaniaHDD]
    Language                    : Spanish
    Default                     : No
    Forced                      : No

    Menu
    00:00:00.000                : en:Chapter 01
    00:03:06.144                : en:Chapter 02
    00:06:42.193                : en:Chapter 03
    00:11:44.746                : en:Chapter 04
    00:18:26.188                : en:Chapter 05
    00:24:53.659                : en:Chapter 06
    00:33:14.159                : en:Chapter 07
    00:37:47.515                : en:Chapter 08
    00:43:16.511                : en:Chapter 09
    00:46:24.865                : en:Chapter 10
    00:51:23.580                : en:Chapter 11
    00:55:52.015                : en:Chapter 12
    01:00:03.183                : en:Chapter 13
    01:05:39.227                : en:Chapter 14
    01:10:40.153                : en:Chapter 15
    01:14:17.578                : en:Chapter 16
    01:18:05.055                : en:Chapter 17
    01:21:12.284                : en:Chapter 18
    01:24:39.366                : en:Chapter 19
    01:28:37.854                : en:Chapter 20
    01:32:28.376                : en:Chapter 21
    01:37:04.652                : en:Chapter 22
    01:40:30.024                : en:Chapter 23
    01:46:49.903                : en:Chapter 24

  • Peso: 7.67 GiB

Sinopsis

Descargar Asesinato en el Expreso de Oriente (2017) Full HD 1080p Latino. Durante un viaje en el legendario tren Orient Express, el detective belga Hercules Poirot investiga un asesinato cometido en el trayecto, y a resultas del cual todos los pasajeros del tren son sospechosos del mismo.

RESUBIDO!!!

Ficha técnica

Video trailer de la película

Enlaces de descarga

Rip de Bluray

Descargar Asesinato en el Expreso de Oriente (2017) Full HD 1080p Latino




Aportes de DPeliculasHDmega la pass es:dpeliculashdmega.org Aportes de CinemaniaHD la pass es:cinemaniahdd.com

Películas relacionadas

descargar Asesinato en el Expreso de Oriente (2017) Full HD 1080p Latino Full 1080p 1080p gratis, Asesinato en el Expreso de Oriente (2017) Full HD 1080p Latino Full 1080p mega 1 link, Asesinato en el Expreso de Oriente (2017) Full HD 1080p Latino Full 1080p pelicula completa, descargar Asesinato en el Expreso de Oriente (2017) Full HD 1080p Latino Full 1080p gratis en mega.

Asesinato en el Expreso de Oriente (2017) Full HD 1080p Latino pelicula full hd, Asesinato en el Expreso de Oriente (2017) Full HD 1080p Latino mega latino, Asesinato en el Expreso de Oriente (2017) Full HD 1080p Latino 4k latino, Asesinato en el Expreso de Oriente (2017) Full HD 1080p Latino pelicula completa, Asesinato en el Expreso de Oriente (2017) Full HD 1080p Latino descargar gratis, descargar Asesinato en el Expreso de Oriente (2017) Full HD 1080p Latino pelicula latino, Asesinato en el Expreso de Oriente (2017) Full HD 1080p Latino 1 link mega, Asesinato en el Expreso de Oriente (2017) Full HD 1080p Latino 1 link google drive, Asesinato en el Expreso de Oriente (2017) Full HD 1080p Latino hd 1080p latino.
Comentarios 8
  • slash007 - 10 marzo, 2018

    Gracias,

  • Jose - 17 febrero, 2018

    Una consulta, por que se le ha bajado tanto el bitrate de las peliculas?, antiguamente tenian 8.000 mb

    • Dracarys - 22 febrero, 2018

      el programa calcula solo el bitrate. si no tiene tanto es que no necesita mas

  • jk2010 - 15 febrero, 2018

    hola gracias x el aporte les cumunico que no sale el psg de ingles… para que sepan.. gracias…

  • Matias - 14 febrero, 2018

    Por fin volvio 1fichier, me compre una premium por ustedes nada mas, saludos y gracias.

  • TorukMato - 14 febrero, 2018

    probe google en otras pagin as..y funciona bien..eso es aqui solamente…antes no pasaba…..ami me funciona bien google…claro donde mejor se consiguen las movies es aqui…porfavor puedes areglarlogracias

  • TorukMato - 14 febrero, 2018

    amigo aqui es lo mismo me deja bajar nada de google…gracias de todas formas

  • Gabriel - 14 febrero, 2018

    Excelente, Muchísimas Gracias por sus Aportes!!
    Felicitaciones, Sigan Así…