×

¿Problemas para descargar con Mozilla, EDGE? Deshabilita la opción "Abrir vinculos en una pestaña nueva" tal como lo muestra ésta imagen.

Muppets from Space (1999) REMUX 1080p Latino – CMHDD

284 vistas

Información de Muppets from Space (1999) REMUX 1080p Latino – CMHDD

Datos de la película

  • Calidad: Full 1080p
  • Audio: Español Latino AC3 5.1 BLURAY - Ingles DTS 5.1 BLURAY
  • Subtitulos: Español Latino SRT- FORZADOS SRT
  • Resolución: 1920x1080p
  • Formato: MKV
  • Codec: H.264
  • Encoder: Dracarys
  • Mediainfo: Clic para Mostrar Datos Ver
  • Format                      : Matroska
    Format version              : Version 4
    File size                   : 24.2 GiB
    Duration                    : 1 h 28 min
    Overall bit rate mode       : Variable
    Overall bit rate            : 39.2 Mb/s
    Movie name                  : Muppets from Space (1999) REMUX 1080p Latino - CMHDD
    Encoded date                : UTC 2020-10-11 16:52:11
    Writing application         : mkvmerge v51.0.0 ('I Wish') 64-bit
    Writing library             : libebml v1.4.0 + libmatroska v1.6.2

    Video
    ID                          : 1
    Format                      : AVC
    Format/Info                 : Advanced Video Codec
    Format profile              : High@L4.1
    Format settings             : CABAC / 4 Ref Frames
    Format settings, CABAC      : Yes
    Format settings, Reference  : 4 frames
    Codec ID                    : V_MPEG4/ISO/AVC
    Duration                    : 1 h 28 min
    Bit rate mode               : Variable
    Bit rate                    : 34.8 Mb/s
    Maximum bit rate            : 37.0 Mb/s
    Width                       : 1 920 pixels
    Height                      : 1 080 pixels
    Display aspect ratio        : 16:9
    Frame rate mode             : Constant
    Frame rate                  : 23.976 (24000/1001) FPS
    Color space                 : YUV
    Chroma subsampling          : 4:2:0
    Bit depth                   : 8 bits
    Scan type                   : Progressive
    Bits/(Pixel*Frame)          : 0.700
    Stream size                 : 21.5 GiB (89%)
    Default                     : Yes
    Forced                      : No

    Audio #1
    ID                          : 2
    Format                      : AC-3
    Format/Info                 : Audio Coding 3
    Commercial name             : Dolby Digital
    Codec ID                    : A_AC3
    Duration                    : 1 h 28 min
    Bit rate mode               : Constant
    Bit rate                    : 448 kb/s
    Channel(s)                  : 6 channels
    Channel layout              : L R C LFE Ls Rs
    Sampling rate               : 48.0 kHz
    Frame rate                  : 31.250 FPS (1536 SPF)
    Compression mode            : Lossy
    Stream size                 : 283 MiB (1%)
    Language                    : Spanish
    Service kind                : Complete Main
    Default                     : Yes
    Forced                      : No

    Audio #2
    ID                          : 3
    Format                      : DTS XLL
    Format/Info                 : Digital Theater Systems
    Commercial name             : DTS-HD Master Audio
    Codec ID                    : A_DTS
    Duration                    : 1 h 28 min
    Bit rate mode               : Variable
    Bit rate                    : 3 949 kb/s
    Channel(s)                  : 6 channels
    Channel layout              : C L R Ls Rs LFE
    Sampling rate               : 48.0 kHz
    Frame rate                  : 93.750 FPS (512 SPF)
    Bit depth                   : 24 bits
    Compression mode            : Lossless
    Stream size                 : 2.43 GiB (10%)
    Language                    : English
    Default                     : No
    Forced                      : No

    Text #1
    ID                          : 4
    Format                      : PGS
    Muxing mode                 : zlib
    Codec ID                    : S_HDMV/PGS
    Codec ID/Info               : Picture based subtitle format used on BDs/HD-DVDs
    Duration                    : 1 h 21 min
    Bit rate                    : 34.7 kb/s
    Count of elements           : 2409
    Stream size                 : 20.1 MiB (0%)
    Language                    : Spanish
    Default                     : No
    Forced                      : No

    Text #2
    ID                          : 5
    Format                      : UTF-8
    Codec ID                    : S_TEXT/UTF8
    Codec ID/Info               : UTF-8 Plain Text
    Duration                    : 1 h 21 min
    Bit rate                    : 60 b/s
    Count of elements           : 1204
    Stream size                 : 35.7 KiB (0%)
    Language                    : Spanish
    Default                     : No
    Forced                      : No

    Text #3
    ID                          : 6
    Format                      : UTF-8
    Codec ID                    : S_TEXT/UTF8
    Codec ID/Info               : UTF-8 Plain Text
    Duration                    : 38 min 53 s
    Bit rate                    : 0 b/s
    Count of elements           : 5
    Stream size                 : 71.0 Bytes (0%)
    Language                    : Spanish
    Default                     : Yes
    Forced                      : No
     

  • Peso: 24.2 GiB

Sinopsis

Con la ayuda de su amigo Rizzo, Gonzo busca a su verdadera familia y descubre que sus parientes son en realidad alienígenas de un lejano planeta. Tras anunciar en el programa de Piggy, «Ovnimanía», que es una prueba viviente de que no estamos solos en el universo, Gonzo es perseguido por K. Edgar Singer, un paranoico agente del gobierno; pero, además, debe decidir entre embarcarse en la nave nodriza y reunirse con su familia o quedarse en la Tierra con los amigos a quien conoce y quiere.

Ficha técnica

Video trailer de la película

Enlaces de descarga

Rip de Bluray

Descargar Muppets from Space (1999) REMUX 1080p Latino – CMHDD


Aportes de DPeliculasHDmega la pass es:dpeliculashdmega.org Aportes de CinemaniaHD la pass es:cinemaniahdd.com

Películas relacionadas

descargar Muppets from Space (1999) REMUX 1080p Latino – CMHDD Full 1080p 1080p gratis, Muppets from Space (1999) REMUX 1080p Latino – CMHDD Full 1080p mega 1 link, Muppets from Space (1999) REMUX 1080p Latino – CMHDD Full 1080p pelicula completa, descargar Muppets from Space (1999) REMUX 1080p Latino – CMHDD Full 1080p gratis en mega.

Muppets from Space (1999) REMUX 1080p Latino – CMHDD pelicula full hd, Muppets from Space (1999) REMUX 1080p Latino – CMHDD mega latino, Muppets from Space (1999) REMUX 1080p Latino – CMHDD 4k latino, Muppets from Space (1999) REMUX 1080p Latino – CMHDD pelicula completa, Muppets from Space (1999) REMUX 1080p Latino – CMHDD descargar gratis, descargar Muppets from Space (1999) REMUX 1080p Latino – CMHDD pelicula latino, Muppets from Space (1999) REMUX 1080p Latino – CMHDD 1 link mega, Muppets from Space (1999) REMUX 1080p Latino – CMHDD 1 link google drive, Muppets from Space (1999) REMUX 1080p Latino – CMHDD hd 1080p latino.
Comentarios 0