×

¿Problemas para descargar con Mozilla, EDGE? Deshabilita la opción "Abrir vinculos en una pestaña nueva" tal como lo muestra ésta imagen.

Muppets from Space (1999) Full HD 1080p Latino – CMHDD

257 vistas

Información de Muppets from Space (1999) Full HD 1080p Latino – CMHDD

Datos de la película

  • Calidad: Full 1080p
  • Audio: Español Latino AC3 5.1 BLURAY - Ingles DTS 5.1 BLURAY
  • Subtitulos: Español Latino PGS
  • Resolución: 1920x1080p
  • Formato: MKV
  • Codec: H.264
  • Encoder: Dracarys
  • Mediainfo: Clic para Mostrar Datos Ver
  • Format                      : Matroska
    Format version              : Version 4
    File size                   : 14.2 GiB
    Duration                    : 1 h 28 min
    Overall bit rate mode       : Variable
    Overall bit rate            : 23.1 Mb/s
    Movie name                  : Muppets from Space (1999) Full HD 1080p Latino - CMHDD
    Encoded date                : UTC 2021-01-25 22:18:32
    Writing application         : mkvmerge v51.0.0 ('I Wish') 64-bit
    Writing library             : libebml v1.4.0 + libmatroska v1.6.2

    Video
    ID                          : 1
    Format                      : AVC
    Format/Info                 : Advanced Video Codec
    Format profile              : High@L4.1
    Format settings             : CABAC / 4 Ref Frames
    Format settings, CABAC      : Yes
    Format settings, Reference  : 4 frames
    Codec ID                    : V_MPEG4/ISO/AVC
    Duration                    : 1 h 28 min
    Bit rate                    : 18.7 Mb/s
    Width                       : 1 920 pixels
    Height                      : 1 080 pixels
    Display aspect ratio        : 16:9
    Frame rate mode             : Constant
    Frame rate                  : 23.976 (24000/1001) FPS
    Color space                 : YUV
    Chroma subsampling          : 4:2:0
    Bit depth                   : 8 bits
    Scan type                   : Progressive
    Bits/(Pixel*Frame)          : 0.376
    Stream size                 : 11.5 GiB (81%)
    Writing library             : x264 core 157 r2935 545de2f
    Encoding settings           : cabac=1 / ref=4 / deblock=1:0:0 / analyse=0x3:0x133 / me=tesa / subme=11 / psy=1 / psy_rd=1.00:0.00 / mixed_ref=1 / me_range=24 / chroma_me=1 / trellis=2 / 8x8dct=1 / cqm=0 / deadzone=21,11 / fast_pskip=0 / chroma_qp_offset=-2 / threads=24 / lookahead_threads=6 / sliced_threads=0 / nr=0 / decimate=1 / interlaced=0 / bluray_compat=0 / constrained_intra=0 / bframes=16 / b_pyramid=2 / b_adapt=2 / b_bias=0 / direct=3 / weightb=1 / open_gop=0 / weightp=2 / keyint=240 / keyint_min=24 / scenecut=40 / intra_refresh=0 / rc_lookahead=60 / rc=crf / mbtree=1 / crf=20.0 / qcomp=0.60 / qpmin=0 / qpmax=69 / qpstep=4 / vbv_maxrate=62500 / vbv_bufsize=78125 / crf_max=0.0 / nal_hrd=none / filler=0 / ip_ratio=1.40 / aq=1:1.00
    Default                     : Yes
    Forced                      : No
    Color range                 : Limited
    Color primaries             : BT.709
    Transfer characteristics    : BT.709
    Matrix coefficients         : BT.709

    Audio #1
    ID                          : 2
    Format                      : AC-3
    Format/Info                 : Audio Coding 3
    Commercial name             : Dolby Digital
    Codec ID                    : A_AC3
    Duration                    : 1 h 28 min
    Bit rate mode               : Constant
    Bit rate                    : 448 kb/s
    Channel(s)                  : 6 channels
    Channel layout              : L R C LFE Ls Rs
    Sampling rate               : 48.0 kHz
    Frame rate                  : 31.250 FPS (1536 SPF)
    Compression mode            : Lossy
    Stream size                 : 283 MiB (2%)
    Language                    : Spanish
    Service kind                : Complete Main
    Default                     : Yes
    Forced                      : No

    Audio #2
    ID                          : 3
    Format                      : DTS XLL
    Format/Info                 : Digital Theater Systems
    Commercial name             : DTS-HD Master Audio
    Codec ID                    : A_DTS
    Duration                    : 1 h 28 min
    Bit rate mode               : Variable
    Bit rate                    : 3 949 kb/s
    Channel(s)                  : 6 channels
    Channel layout              : C L R Ls Rs LFE
    Sampling rate               : 48.0 kHz
    Frame rate                  : 93.750 FPS (512 SPF)
    Bit depth                   : 24 bits
    Compression mode            : Lossless
    Stream size                 : 2.43 GiB (17%)
    Language                    : English
    Default                     : No
    Forced                      : No

    Text
    ID                          : 4
    Format                      : PGS
    Muxing mode                 : zlib
    Codec ID                    : S_HDMV/PGS
    Codec ID/Info               : Picture based subtitle format used on BDs/HD-DVDs
    Duration                    : 1 h 21 min
    Bit rate                    : 34.7 kb/s
    Count of elements           : 2409
    Stream size                 : 20.1 MiB (0%)
    Language                    : Spanish
    Default                     : No
    Forced                      : No

  • Peso: 14.2 GiB

Sinopsis

Con la ayuda de su amigo Rizzo, Gonzo busca a su verdadera familia y descubre que sus parientes son en realidad alienígenas de un lejano planeta. Tras anunciar en el programa de Piggy, «Ovnimanía», que es una prueba viviente de que no estamos solos en el universo, Gonzo es perseguido por K. Edgar Singer, un paranoico agente del gobierno; pero, además, debe decidir entre embarcarse en la nave nodriza y reunirse con su familia o quedarse en la Tierra con los amigos a quien conoce y quiere.

Ficha técnica

Video trailer de la película

Enlaces de descarga

Rip de Bluray

Descargar Muppets from Space (1999) Full HD 1080p Latino – CMHDD




Aportes de DPeliculasHDmega la pass es:dpeliculashdmega.org Aportes de CinemaniaHD la pass es:cinemaniahdd.com

Películas relacionadas

descargar Muppets from Space (1999) Full HD 1080p Latino – CMHDD Full 1080p 1080p gratis, Muppets from Space (1999) Full HD 1080p Latino – CMHDD Full 1080p mega 1 link, Muppets from Space (1999) Full HD 1080p Latino – CMHDD Full 1080p pelicula completa, descargar Muppets from Space (1999) Full HD 1080p Latino – CMHDD Full 1080p gratis en mega.

Muppets from Space (1999) Full HD 1080p Latino – CMHDD pelicula full hd, Muppets from Space (1999) Full HD 1080p Latino – CMHDD mega latino, Muppets from Space (1999) Full HD 1080p Latino – CMHDD 4k latino, Muppets from Space (1999) Full HD 1080p Latino – CMHDD pelicula completa, Muppets from Space (1999) Full HD 1080p Latino – CMHDD descargar gratis, descargar Muppets from Space (1999) Full HD 1080p Latino – CMHDD pelicula latino, Muppets from Space (1999) Full HD 1080p Latino – CMHDD 1 link mega, Muppets from Space (1999) Full HD 1080p Latino – CMHDD 1 link google drive, Muppets from Space (1999) Full HD 1080p Latino – CMHDD hd 1080p latino.
Comentarios 2
  • The Principal - 26 enero, 2021

    hola amigo igual q la anterior solo drive y llago a el limite de descargas…el detalla es que no hay otro enlace.!
    gracias

    • Dracarys - 26 enero, 2021

      Tienes Uptobox También