×

¿Problemas para descargar con Mozilla, EDGE? Deshabilita la opción "Abrir vinculos en una pestaña nueva" tal como lo muestra ésta imagen.

Muñecas Asesina (2019) HD 1080p Latino

169 vistas

Información de Muñecas Asesina (2019) HD 1080p Latino

Datos de la película

  • Calidad: 1080p
  • Audio: Español Latino AC3 2.0 WEB-DL - Ingles AC3 5.1 BLURAY
  • Subtitulos: Español Latino SRT- FORZADOS SRT
  • Resolución: 1920x800p
  • Formato: MKV
  • Codec: H.264
  • Encoder: Melkor
  • Mediainfo: Clic para Mostrar Datos Ver
  • Dolls (2019) HD 1080p Latino.mkv
    Format                      : Matroska
    Format version              : Version 4
    File size                   : 2.46 GiB
    Duration                    : 1 h 24 min
    Overall bit rate            : 4 161 kb/s
    Movie name                  : Dolls (2019) CinemaniaHDD.Net
    Encoded date                : UTC 2021-10-30 15:56:41
    Writing application         : mkvmerge v56.1.0 ('My Friend') 64-bit
    Writing library             : libebml v1.4.2 + libmatroska v1.6.4
    Attachments                 : CINEMANIAHD.png

    Video
    ID                          : 1
    Format                      : AVC
    Format/Info                 : Advanced Video Codec
    Format profile              : High@L4.1
    Format settings             : CABAC / 5 Ref Frames
    Format settings, CABAC      : Yes
    Format settings, Reference  : 5 frames
    Codec ID                    : V_MPEG4/ISO/AVC
    Duration                    : 1 h 24 min
    Bit rate                    : 3 500 kb/s
    Width                       : 1 920 pixels
    Height                      : 800 pixels
    Display aspect ratio        : 2.40:1
    Frame rate mode             : Constant
    Frame rate                  : 23.976 (24000/1001) FPS
    Color space                 : YUV
    Chroma subsampling          : 4:2:0
    Bit depth                   : 8 bits
    Scan type                   : Progressive
    Bits/(Pixel*Frame)          : 0.095
    Stream size                 : 2.04 GiB (83%)
    Title                       : HD1080p [CinemaniaHDD]
    Writing library             : x264 core 163 r3059 b684ebe0
    Encoding settings           : cabac=1 / ref=5 / deblock=1:-1:-1 / analyse=0x3:0x133 / me=umh / subme=9 / psy=1 / psy_rd=1.00:0.15 / mixed_ref=1 / me_range=16 / chroma_me=1 / trellis=2 / 8x8dct=1 / cqm=0 / deadzone=21,11 / fast_pskip=1 / chroma_qp_offset=-3 / threads=24 / lookahead_threads=2 / sliced_threads=0 / nr=0 / decimate=1 / interlaced=0 / bluray_compat=0 / constrained_intra=0 / bframes=3 / b_pyramid=2 / b_adapt=2 / b_bias=0 / direct=3 / weightb=1 / open_gop=0 / weightp=2 / keyint=240 / keyint_min=24 / scenecut=40 / intra_refresh=0 / rc_lookahead=60 / rc=abr / mbtree=1 / bitrate=3500 / ratetol=1.0 / qcomp=0.60 / qpmin=0 / qpmax=69 / qpstep=4 / vbv_maxrate=62500 / vbv_bufsize=78125 / nal_hrd=none / filler=0 / ip_ratio=1.40 / aq=1:1.00
    Default                     : Yes
    Forced                      : Yes
    Color range                 : Limited
    Color primaries             : BT.709
    Transfer characteristics    : BT.709
    Matrix coefficients         : BT.709

    Audio #1
    ID                          : 2
    Format                      : AC-3
    Format/Info                 : Audio Coding 3
    Commercial name             : Dolby Digital
    Codec ID                    : A_AC3
    Duration                    : 1 h 24 min
    Bit rate mode               : Constant
    Bit rate                    : 448 kb/s
    Channel(s)                  : 6 channels
    Channel layout              : L R C LFE Ls Rs
    Sampling rate               : 48.0 kHz
    Frame rate                  : 31.250 FPS (1536 SPF)
    Compression mode            : Lossy
    Delay relative to video     : -5 ms
    Stream size                 : 271 MiB (11%)
    Title                       : Ingles [CinemaniaHDD]
    Language                    : English
    Service kind                : Complete Main
    Default                     : No
    Forced                      : No

    Audio #2
    ID                          : 3
    Format                      : AC-3
    Format/Info                 : Audio Coding 3
    Commercial name             : Dolby Digital
    Codec ID                    : A_AC3
    Duration                    : 1 h 24 min
    Bit rate mode               : Constant
    Bit rate                    : 256 kb/s
    Channel(s)                  : 2 channels
    Channel layout              : L R
    Sampling rate               : 48.0 kHz
    Frame rate                  : 31.250 FPS (1536 SPF)
    Compression mode            : Lossy
    Delay relative to video     : -5 ms
    Stream size                 : 155 MiB (6%)
    Title                       : Español Latino [CinemaniaHDD]
    Language                    : Spanish
    Service kind                : Complete Main
    Default                     : Yes
    Forced                      : Yes

    Text #1
    ID                          : 4
    Format                      : UTF-8
    Codec ID                    : S_TEXT/UTF8
    Codec ID/Info               : UTF-8 Plain Text
    Duration                    : 1 h 18 min
    Bit rate                    : 1 b/s
    Count of elements           : 27
    Stream size                 : 649 Bytes (0%)
    Title                       : Forzados-SRT [CinemaniaHDD]
    Language                    : Spanish
    Default                     : Yes
    Forced                      : Yes

    Text #2
    ID                          : 5
    Format                      : UTF-8
    Codec ID                    : S_TEXT/UTF8
    Codec ID/Info               : UTF-8 Plain Text
    Duration                    : 1 h 23 min
    Bit rate                    : 47 b/s
    Count of elements           : 1004
    Stream size                 : 28.7 KiB (0%)
    Title                       : Español-SRT [CinemaniaHDD]
    Language                    : Spanish
    Default                     : No
    Forced                      : No

    Text #3
    ID                          : 6
    Format                      : UTF-8
    Codec ID                    : S_TEXT/UTF8
    Codec ID/Info               : UTF-8 Plain Text
    Duration                    : 1 h 21 min
    Bit rate                    : 47 b/s
    Count of elements           : 1066
    Stream size                 : 28.5 KiB (0%)
    Title                       : Ingles [CinemaniaHDD]
    Language                    : English
    Default                     : No
    Forced                      : No

    Menu
    00:00:00.000                : :Chapter 01
    00:10:19.577                : :Chapter 02
    00:19:54.234                : :Chapter 03
    00:29:13.585                : :Chapter 04
    00:39:09.347                : :Chapter 05
    00:46:43.467                : :Chapter 06
    00:54:53.665                : :Chapter 07
    01:04:19.897                : :Chapter 08
    01:11:33.706                : :Chapter 09
    01:17:56.838                : :Chapter 10

  • Peso: 2.46 GiB

Sinopsis

Descargar Muñecas Asesina (2019) HD 1080p Latino. Un autor de libros para niños en apuros y su rebelde hija adolescente se mudan a una casa que han heredado y encuentran muñecas misteriosas en el ático. El padre y la hija pronto se enteran de que las muñecas tienen un pasado siniestro y mortal.

Ficha técnica

  • Titulo original: Dolls
  • Fecha de lanzamiento: 02-07-2019 (United States of America)
  • Director: Cuyle Carvin
  • Género: HD 1080p, Terror

Video trailer de la película

Enlaces de descarga

Rip de Bluray

Descargar Muñecas Asesina (2019) HD 1080p Latino




Aportes de DPeliculasHDmega la pass es:dpeliculashdmega.org Aportes de CinemaniaHD la pass es:cinemaniahdd.com
Guardado en : HD 1080p , Terror

Películas relacionadas

  • El discurso del Rey (2010) 1080p Latino

    El discurso del Rey (2010) 1080p Latino

    2010
    El discurso del Rey (2010) 1080p Latino

    1h 58m 2010

    Descargar El discurso del Rey (2010) 1080p Latino. El duque de York se convirtió en rey de Gran Bretaña...

    Director: Tom Hooper

    Género: Drama

    Actores: Tony Earnshaw

  • Detective Knight: Redencion (2022) HD 1080p Latino

    Detective Knight: Redencion (2022) HD 1080p Latino

    2022
    Detective Knight: Redencion (2022) HD 1080p Latino

    1h 33m 2022

    Descargar Detective Knight: Redencion (2022) HD 1080p Latino. El detective James Knight se encuentra...

    Director: Edward Drake

    Género: Acción

    Actores: Paul Johansson

  • Detective Knight: Sin Piedad (2022) HD 1080p Latino

    Detective Knight: Sin Piedad (2022) HD 1080p Latino

    2022
    Detective Knight: Sin Piedad (2022) HD 1080p Latino

    1h 45m 2022

    Descargar Detective Knight: Sin Piedad (2022) HD 1080p Latino. James Knight es un veterano detective...

    Director: Edward Drake

    Género: Acción

    Actores: Sarah May Sommers

  • Un mundo extraño (2022) HD 1080p Latino

    Un mundo extraño (2022) HD 1080p Latino

    2022
    Un mundo extraño (2022) HD 1080p Latino

    1h 42m 2022

    Descargar Un mundo extraño (2022) HD 1080p Latino. Los Clades son una familia conocida en todo el mundo,...

    Director: Thai Bettistea

    Género: Animación

    Actores: Reed Buck

  • Lobo Vikingo (2022) NF WEB-DL 1080p Latino

    Lobo Vikingo (2022) NF WEB-DL 1080p Latino

    2022
    Lobo Vikingo (2022) NF WEB-DL 1080p Latino

    1h 38m 2022

    Descargar Lobo Vikingo (2022) NF WEB-DL 1080p Latino. Thale (17) acaba de mudarse con sus padres a un...

    Director: Stig Svendsen

    Género: Netflix

    Actores: Vidar Magnussen

descargar Muñecas Asesina (2019) HD 1080p Latino 1080p 1080p gratis, Muñecas Asesina (2019) HD 1080p Latino 1080p mega 1 link, Muñecas Asesina (2019) HD 1080p Latino 1080p pelicula completa, descargar Muñecas Asesina (2019) HD 1080p Latino 1080p gratis en mega.

Muñecas Asesina (2019) HD 1080p Latino pelicula full hd, Muñecas Asesina (2019) HD 1080p Latino mega latino, Muñecas Asesina (2019) HD 1080p Latino 4k latino, Muñecas Asesina (2019) HD 1080p Latino pelicula completa, Muñecas Asesina (2019) HD 1080p Latino descargar gratis, descargar Muñecas Asesina (2019) HD 1080p Latino pelicula latino, Muñecas Asesina (2019) HD 1080p Latino 1 link mega, Muñecas Asesina (2019) HD 1080p Latino 1 link google drive, Muñecas Asesina (2019) HD 1080p Latino hd 1080p latino.
Comentarios 0