×

¿Problemas para descargar con Mozilla, EDGE? Deshabilita la opción "Abrir vinculos en una pestaña nueva" tal como lo muestra ésta imagen.

Doctor Strange En El Multiverso De La Locura (2022) D+ IMAX Web-DL 1080p Latino

2.494 vistas

Información de Doctor Strange En El Multiverso De La Locura (2022) D+ IMAX Web-DL 1080p Latino

Datos de la película

  • Calidad: WEBDL
  • Audio: Español Latino AC3 5.1 WEB-DL - Ingles AC3 5.1 WEB-DL
  • Subtitulos: Español Latino SRT- FORZADOS SRT
  • Resolución: 1920x1080p
  • Formato: MKV
  • Codec: H.264
  • Encoder: Melkor
  • Mediainfo: Clic para Mostrar Datos Ver
  • Doctor Strange en el multiverso de la locura (2022) D+ IMAX WebDL 1080p Latino.mkv
    Format                      : Matroska
    Format version              : Version 4
    File size                   : 7.92 GiB
    Duration                    : 2 h 6 min
    Overall bit rate mode       : Variable
    Overall bit rate            : 8 963 kb/s
    Movie name                  : Doctor Strange in the Multiverse of Madness (2022) CinemaniaHDD.Net
    Encoded date                : UTC 2022-06-22 07:52:44
    Writing application         : mkvmerge v56.1.0 ('My Friend') 64-bit
    Writing library             : libebml v1.4.2 + libmatroska v1.6.4
    Attachments                 : CINEMANIAHD.png

    Video
    ID                          : 1
    Format                      : AVC
    Format/Info                 : Advanced Video Codec
    Format profile              : High@L4
    Format settings             : CABAC / 4 Ref Frames
    Format settings, CABAC      : Yes
    Format settings, Reference  : 4 frames
    Codec ID                    : V_MPEG4/ISO/AVC
    Duration                    : 2 h 6 min
    Bit rate mode               : Variable
    Bit rate                    : 7 488 kb/s
    Maximum bit rate            : 12.7 Mb/s
    Width                       : 1 920 pixels
    Height                      : 1 080 pixels
    Display aspect ratio        : 16:9
    Frame rate mode             : Constant
    Frame rate                  : 23.976 (24000/1001) FPS
    Color space                 : YUV
    Chroma subsampling          : 4:2:0
    Bit depth                   : 8 bits
    Scan type                   : Progressive
    Bits/(Pixel*Frame)          : 0.151
    Stream size                 : 6.62 GiB (84%)
    Title                       : Web HD1080p [CinemaniaHDD]
    Language                    : English
    Default                     : Yes
    Forced                      : Yes
    Color range                 : Limited
    Color primaries             : BT.709
    Transfer characteristics    : BT.709
    Matrix coefficients         : BT.709

    Audio #1
    ID                          : 2
    Format                      : AC-3
    Format/Info                 : Audio Coding 3
    Commercial name             : Dolby Digital
    Codec ID                    : A_AC3
    Duration                    : 2 h 6 min
    Bit rate mode               : Constant
    Bit rate                    : 448 kb/s
    Channel(s)                  : 6 channels
    Channel layout              : L R C LFE Ls Rs
    Sampling rate               : 48.0 kHz
    Frame rate                  : 31.250 FPS (1536 SPF)
    Compression mode            : Lossy
    Stream size                 : 405 MiB (5%)
    Title                       : Español Latino AC3 [CinemaniaHDD]
    Language                    : Spanish
    Service kind                : Complete Main
    Default                     : Yes
    Forced                      : Yes

    Audio #2
    ID                          : 3
    Format                      : E-AC-3
    Format/Info                 : Enhanced AC-3
    Commercial name             : Dolby Digital Plus
    Codec ID                    : A_EAC3
    Duration                    : 2 h 6 min
    Bit rate mode               : Constant
    Bit rate                    : 256 kb/s
    Channel(s)                  : 6 channels
    Channel layout              : L R C LFE Ls Rs
    Sampling rate               : 48.0 kHz
    Frame rate                  : 31.250 FPS (1536 SPF)
    Compression mode            : Lossy
    Stream size                 : 232 MiB (3%)
    Title                       : Español Latino EAC3 [CinemaniaHDD]
    Language                    : Spanish
    Service kind                : Complete Main
    Default                     : No
    Forced                      : No

    Audio #3
    ID                          : 4
    Format                      : E-AC-3 JOC
    Format/Info                 : Enhanced AC-3 with Joint Object Coding
    Commercial name             : Dolby Digital Plus with Dolby Atmos
    Codec ID                    : A_EAC3
    Duration                    : 2 h 6 min
    Bit rate mode               : Constant
    Bit rate                    : 768 kb/s
    Channel(s)                  : 6 channels
    Channel layout              : L R C LFE Ls Rs
    Sampling rate               : 48.0 kHz
    Frame rate                  : 31.250 FPS (1536 SPF)
    Compression mode            : Lossy
    Stream size                 : 695 MiB (9%)
    Title                       : Ingles [CinemaniaHDD]
    Language                    : English
    Service kind                : Complete Main
    Default                     : No
    Forced                      : No
    Complexity index            : 16
    Number of dynamic objects   : 15
    Bed channel count           : 1 channel
    Bed channel configuration   : LFE

    Text #1
    ID                          : 5
    Format                      : UTF-8
    Codec ID                    : S_TEXT/UTF8
    Codec ID/Info               : UTF-8 Plain Text
    Duration                    : 1 h 39 min
    Bit rate                    : 0 b/s
    Count of elements           : 10
    Stream size                 : 392 Bytes (0%)
    Title                       : Forzados-SRT [CinemaniaHDD]
    Language                    : Spanish
    Default                     : Yes
    Forced                      : Yes

    Text #2
    ID                          : 6
    Format                      : UTF-8
    Codec ID                    : S_TEXT/UTF8
    Codec ID/Info               : UTF-8 Plain Text
    Duration                    : 2 h 5 min
    Bit rate                    : 37 b/s
    Count of elements           : 1252
    Stream size                 : 34.5 KiB (0%)
    Title                       : Español-SRT [CinemaniaHDD]
    Language                    : Spanish
    Default                     : No
    Forced                      : No

    Text #3
    ID                          : 7
    Format                      : UTF-8
    Codec ID                    : S_TEXT/UTF8
    Codec ID/Info               : UTF-8 Plain Text
    Duration                    : 2 h 5 min
    Bit rate                    : 50 b/s
    Count of elements           : 1906
    Stream size                 : 46.1 KiB (0%)
    Title                       : Ingles-SRT [CinemaniaHDD]
    Language                    : English
    Default                     : No
    Forced                      : No

  • Peso: 7.92 GiB

Sinopsis

Descargar Doctor Strange En El Multiverso De La Locura (2022) D+ IMAX Web-DL 1080p Latino. Viaja a lo desconocido con el Doctor Strange, quien, con la ayuda de tanto antiguos como nuevos aliados místicos, recorre las complejas y peligrosas realidades alternativas del multiverso para enfrentarse a un nuevo y misterioso adversario.

Ficha técnica

Video trailer de la película

Enlaces de descarga

Rip de Bluray

Descargar Doctor Strange En El Multiverso De La Locura (2022) D+ IMAX Web-DL 1080p Latino




Aportes de DPeliculasHDmega la pass es:dpeliculashdmega.org Aportes de CinemaniaHD la pass es:cinemaniahdd.com
Guardado en : Acción , Aventura , Fantasía

Películas relacionadas

  • Herencia peligrosa (2022) HD 1080p Latino

    Herencia peligrosa (2022) HD 1080p Latino

    2022
    Herencia peligrosa (2022) HD 1080p Latino

    1h 34m 2022

    Descargar Herencia peligrosa (2022) HD 1080p Latino. Tres ladrones se hacen con el yate de lujo de una...

    Director: Declan Whitebloom

    Género: Acción

    Actores: Vernon Davis

  • Herencia peligrosa (2022) REMUX 1080p Latino

    Herencia peligrosa (2022) REMUX 1080p Latino

    2022
    Herencia peligrosa (2022) REMUX 1080p Latino

    1h 34m 2022

    Descargar Herencia peligrosa (2022) REMUX 1080p Latino. Tres ladrones se hacen con el yate de lujo de...

    Director: Declan Whitebloom

    Género: Acción

    Actores: Vernon Davis

  • El Lobo Y El Leon (2021) HD 1080p Latino

    El Lobo Y El Leon (2021) HD 1080p Latino

    2021
    El Lobo Y El Leon (2021) HD 1080p Latino

    1h 39m 2021

    Descargar El Lobo Y El Leon (2021) HD 1080p Latino. A la muerte de su abuelo, Alma, un joven pianista...

    Director: Gilles de Maistre

    Género: Aventura

    Actores: Victor Cornfoot

  • El Lobo Y El Leon (2021) PLACEBO Full HD 1080p Latino

    El Lobo Y El Leon (2021) PLACEBO Full HD 1080p Latino

    2021
    El Lobo Y El Leon (2021) PLACEBO Full HD 1080p Latino

    1h 39m 2021

    Descargar El Lobo Y El Leon (2021) PLACEBO Full HD 1080p Latino. A la muerte de su abuelo, Alma, un joven...

    Director: Gilles de Maistre

    Género: Aventura

    Actores: Victor Cornfoot

descargar Doctor Strange En El Multiverso De La Locura (2022) D+ IMAX Web-DL 1080p Latino WEBDL 1080p gratis, Doctor Strange En El Multiverso De La Locura (2022) D+ IMAX Web-DL 1080p Latino WEBDL mega 1 link, Doctor Strange En El Multiverso De La Locura (2022) D+ IMAX Web-DL 1080p Latino WEBDL pelicula completa, descargar Doctor Strange En El Multiverso De La Locura (2022) D+ IMAX Web-DL 1080p Latino WEBDL gratis en mega.

Doctor Strange En El Multiverso De La Locura (2022) D+ IMAX Web-DL 1080p Latino pelicula full hd, Doctor Strange En El Multiverso De La Locura (2022) D+ IMAX Web-DL 1080p Latino mega latino, Doctor Strange En El Multiverso De La Locura (2022) D+ IMAX Web-DL 1080p Latino 4k latino, Doctor Strange En El Multiverso De La Locura (2022) D+ IMAX Web-DL 1080p Latino pelicula completa, Doctor Strange En El Multiverso De La Locura (2022) D+ IMAX Web-DL 1080p Latino descargar gratis, descargar Doctor Strange En El Multiverso De La Locura (2022) D+ IMAX Web-DL 1080p Latino pelicula latino, Doctor Strange En El Multiverso De La Locura (2022) D+ IMAX Web-DL 1080p Latino 1 link mega, Doctor Strange En El Multiverso De La Locura (2022) D+ IMAX Web-DL 1080p Latino 1 link google drive, Doctor Strange En El Multiverso De La Locura (2022) D+ IMAX Web-DL 1080p Latino hd 1080p latino.
Comentarios 0