×

¿Problemas para descargar con Mozilla, EDGE? Deshabilita la opción "Abrir vinculos en una pestaña nueva" tal como lo muestra ésta imagen.

Doctor Strange En El Multiverso De La Locura (2022) WEB-DL 4K UHD HDR Latino

976 vistas

Información de Doctor Strange En El Multiverso De La Locura (2022) WEB-DL 4K UHD HDR Latino

Datos de la película

  • Calidad: WEBDL
  • Audio: Español Latino AC3 5.1 WEB-DL - Ingles AC3 5.1 WEB-DL
  • Subtitulos: Español Latino SRT- FORZADOS SRT
  • Resolución: 3840x1608p
  • Formato: MKV
  • Codec: HEVC
  • Encoder: Melkor
  • Mediainfo: Clic para Mostrar Datos Ver
  • Doctor Strange en el multiverso de la locura (2022) WEB UHD HDR Latino.mkv
    Format                      : Matroska
    Format version              : Version 4
    File size                   : 22.3 GiB
    Duration                    : 2 h 6 min
    Overall bit rate            : 25.3 Mb/s
    Movie name                  : Doctor Strange in the Multiverse of Madness (2022) CinemaniaHDD.Net
    Encoded date                : UTC 2022-06-21 21:21:35
    Writing application         : mkvmerge v56.1.0 ('My Friend') 64-bit
    Writing library             : libebml v1.4.2 + libmatroska v1.6.4
    Attachments                 : CINEMANIAHD.png

    Video
    ID                          : 1
    Format                      : HEVC
    Format/Info                 : High Efficiency Video Coding
    Format profile              : Main 10@L5@High
    HDR format                  : SMPTE ST 2086, HDR10 compatible
    Codec ID                    : V_MPEGH/ISO/HEVC
    Duration                    : 2 h 6 min
    Bit rate                    : 24.1 Mb/s
    Width                       : 3 840 pixels
    Height                      : 1 608 pixels
    Display aspect ratio        : 2.40:1
    Frame rate mode             : Constant
    Frame rate                  : 23.976 (24000/1001) FPS
    Color space                 : YUV
    Chroma subsampling          : 4:2:0 (Type 2)
    Bit depth                   : 10 bits
    Bits/(Pixel*Frame)          : 0.163
    Stream size                 : 21.3 GiB (95%)
    Title                       : Web 2160p HDR [CinemaniaHDD]
    Language                    : English
    Default                     : Yes
    Forced                      : No
    Color range                 : Limited
    Color primaries             : BT.2020
    Transfer characteristics    : PQ
    Matrix coefficients         : BT.2020 non-constant
    Mastering display color pri : BT.2020
    Mastering display luminance : min: 0.0050 cd/m2, max: 1000 cd/m2
    Maximum Content Light Level : 1478 cd/m2
    Maximum Frame-Average Light : 916 cd/m2

    Audio #1
    ID                          : 2
    Format                      : AC-3
    Format/Info                 : Audio Coding 3
    Commercial name             : Dolby Digital
    Codec ID                    : A_AC3
    Duration                    : 2 h 6 min
    Bit rate mode               : Constant
    Bit rate                    : 384 kb/s
    Channel(s)                  : 6 channels
    Channel layout              : L R C LFE Ls Rs
    Sampling rate               : 48.0 kHz
    Frame rate                  : 31.250 FPS (1536 SPF)
    Compression mode            : Lossy
    Stream size                 : 348 MiB (2%)
    Title                       : Español Latino [CinemaniaHDD]
    Language                    : Spanish
    Service kind                : Complete Main
    Default                     : Yes
    Forced                      : Yes

    Audio #2
    ID                          : 3
    Format                      : E-AC-3 JOC
    Format/Info                 : Enhanced AC-3 with Joint Object Coding
    Commercial name             : Dolby Digital Plus with Dolby Atmos
    Codec ID                    : A_EAC3
    Duration                    : 2 h 6 min
    Bit rate mode               : Constant
    Bit rate                    : 768 kb/s
    Channel(s)                  : 6 channels
    Channel layout              : L R C LFE Ls Rs
    Sampling rate               : 48.0 kHz
    Frame rate                  : 31.250 FPS (1536 SPF)
    Compression mode            : Lossy
    Stream size                 : 695 MiB (3%)
    Title                       : Ingles [CinemaniaHDD]
    Language                    : English
    Service kind                : Complete Main
    Default                     : No
    Forced                      : No
    Complexity index            : 16
    Number of dynamic objects   : 15
    Bed channel count           : 1 channel
    Bed channel configuration   : LFE

    Text #1
    ID                          : 4
    Format                      : UTF-8
    Codec ID                    : S_TEXT/UTF8
    Codec ID/Info               : UTF-8 Plain Text
    Duration                    : 1 h 39 min
    Bit rate                    : 0 b/s
    Count of elements           : 10
    Stream size                 : 392 Bytes (0%)
    Title                       : Forzados-SRT [CinemaniaHDD]
    Language                    : Spanish
    Default                     : Yes
    Forced                      : Yes

    Text #2
    ID                          : 5
    Format                      : UTF-8
    Codec ID                    : S_TEXT/UTF8
    Codec ID/Info               : UTF-8 Plain Text
    Duration                    : 2 h 5 min
    Bit rate                    : 37 b/s
    Count of elements           : 1252
    Stream size                 : 34.5 KiB (0%)
    Title                       : Español-SRT [CinemaniaHDD]
    Language                    : Spanish
    Default                     : No
    Forced                      : No

    Text #3
    ID                          : 6
    Format                      : UTF-8
    Codec ID                    : S_TEXT/UTF8
    Codec ID/Info               : UTF-8 Plain Text
    Duration                    : 23 min 46 s
    Bit rate                    : 61 b/s
    Count of elements           : 438
    Stream size                 : 10.7 KiB (0%)
    Title                       : Ingles-SRT [CinemaniaHDD]
    Language                    : English
    Default                     : No
    Forced                      : No

    Menu
    00:00:00.000                : Chapter 01
    00:03:51.398                : Chapter 02
    00:08:26.506                : Chapter 03
    00:14:19.442                : Chapter 04
    00:18:23.061                : Chapter 05
    00:24:37.602                : Chapter 06
    00:37:58.153                : Chapter 07
    00:47:15.502                : Chapter 08
    00:50:03.545                : Chapter 09
    00:55:51.059                : Chapter 10
    00:59:46.336                : Chapter 11
    01:02:19.656                : Chapter 12
    01:05:18.418                : Chapter 13
    01:07:20.790                : Chapter 14
    01:15:03.586                : Chapter 15
    01:17:01.871                : Chapter 16
    01:19:18.383                : Chapter 17
    01:23:29.342                : Chapter 18
    01:26:34.194                : Chapter 19
    01:28:51.206                : Chapter 20
    01:34:47.270                : Chapter 21
    01:37:38.650                : Chapter 22
    01:41:27.629                : Chapter 23
    01:51:03.288                : Chapter 24
    01:53:26.473                : Chapter 25
    01:55:38.855                : Chapter 26
    01:56:32.075                : Chapter 27
    01:58:48.378                : Chapter 28
    01:59:25.665                : Chapter 29

  • Peso: 22.3 GiB

Sinopsis

Descargar Doctor Strange En El Multiverso De La Locura (2022) WEB-DL 4K UHD HDR Latino. Viaja a lo desconocido con el Doctor Strange, quien, con la ayuda de tanto antiguos como nuevos aliados místicos, recorre las complejas y peligrosas realidades alternativas del multiverso para enfrentarse a un nuevo y misterioso adversario.

Ficha técnica

Video trailer de la película

Enlaces de descarga

Rip de Bluray

Descargar Doctor Strange En El Multiverso De La Locura (2022) WEB-DL 4K UHD HDR Latino




Aportes de DPeliculasHDmega la pass es:dpeliculashdmega.org Aportes de CinemaniaHD la pass es:cinemaniahdd.com
Guardado en : 4K HDR , 4K UHD , Acción , Aventura , Fantasía

Películas relacionadas

Doctor Strange En El Multiverso De La Locura (2022) WEB-DL 4K UHD HDR Latino pelicula full hd, Doctor Strange En El Multiverso De La Locura (2022) WEB-DL 4K UHD HDR Latino mega latino, Doctor Strange En El Multiverso De La Locura (2022) WEB-DL 4K UHD HDR Latino 4k latino, Doctor Strange En El Multiverso De La Locura (2022) WEB-DL 4K UHD HDR Latino pelicula completa, Doctor Strange En El Multiverso De La Locura (2022) WEB-DL 4K UHD HDR Latino descargar gratis, descargar Doctor Strange En El Multiverso De La Locura (2022) WEB-DL 4K UHD HDR Latino pelicula latino, Doctor Strange En El Multiverso De La Locura (2022) WEB-DL 4K UHD HDR Latino 1 link mega, Doctor Strange En El Multiverso De La Locura (2022) WEB-DL 4K UHD HDR Latino 1 link google drive, Doctor Strange En El Multiverso De La Locura (2022) WEB-DL 4K UHD HDR Latino hd 1080p latino.
Comentarios 0