×

¿Problemas para descargar con Mozilla, EDGE? Deshabilita la opción "Abrir vinculos en una pestaña nueva" tal como lo muestra ésta imagen.

Mulan (2020) WEB-DL 1080p Latino [DSNY+] – CMHDD

594 vistas

Información de Mulan (2020) WEB-DL 1080p Latino [DSNY+] – CMHDD

Datos de la película

  • Calidad: WEBDL
  • Audio: Se especifica abajo de la Sinopsis
  • Subtitulos: Español Latino SRT- FORZADOS SRT
  • Resolución: 1920x1080p
  • Formato: MKV
  • Codec: H.264
  • Encoder: CinemaniaHDD
  • Mediainfo: Clic para Mostrar Datos Ver
  • Format                      : Matroska
    Format version              : Version 4
    File size                   : 7.65 GiB
    Duration                    : 1 h 55 min
    Overall bit rate mode       : Variable
    Overall bit rate            : 9 509 kb/s
    Movie name                  : Mulan (2020) WEB-DL 1080p Latino [DSNY+] - CMHDD
    Encoded date                : UTC 2020-09-04 19:18:45
    Writing application         : mkvmerge v46.0.0 ('No Deeper Escape') 64-bit
    Writing library             : libebml v1.3.10 + libmatroska v1.5.2

    Video
    ID                          : 1
    Format                      : AVC
    Format/Info                 : Advanced Video Codec
    Format profile              : High@L4
    Format settings             : CABAC / 4 Ref Frames
    Format settings, CABAC      : Yes
    Format settings, Reference  : 4 frames
    Codec ID                    : V_MPEG4/ISO/AVC
    Duration                    : 1 h 55 min
    Bit rate mode               : Variable
    Bit rate                    : 8 482 kb/s
    Maximum bit rate            : 12.7 Mb/s
    Width                       : 1 920 pixels
    Height                      : 1 080 pixels
    Display aspect ratio        : 16:9
    Frame rate mode             : Constant
    Frame rate                  : 23.976 (24000/1001) FPS
    Color space                 : YUV
    Chroma subsampling          : 4:2:0
    Bit depth                   : 8 bits
    Scan type                   : Progressive
    Bits/(Pixel*Frame)          : 0.171
    Stream size                 : 6.82 GiB (89%)
    Language                    : English
    Default                     : Yes
    Forced                      : No
    Color range                 : Limited
    Color primaries             : BT.709
    Transfer characteristics    : BT.709
    Matrix coefficients         : BT.709

    Audio #1
    ID                          : 2
    Format                      : E-AC-3
    Format/Info                 : Enhanced AC-3
    Commercial name             : Dolby Digital Plus
    Codec ID                    : A_EAC3
    Duration                    : 1 h 55 min
    Bit rate mode               : Constant
    Bit rate                    : 256 kb/s
    Channel(s)                  : 6 channels
    Channel layout              : L R C LFE Ls Rs
    Sampling rate               : 48.0 kHz
    Frame rate                  : 31.250 FPS (1536 SPF)
    Compression mode            : Lossy
    Stream size                 : 211 MiB (3%)
    Language                    : Spanish
    Service kind                : Complete Main
    Default                     : Yes
    Forced                      : No

    Audio #2
    ID                          : 3
    Format                      : E-AC-3 JOC
    Format/Info                 : Enhanced AC-3 with Joint Object Coding
    Commercial name             : Dolby Digital Plus with Dolby Atmos
    Codec ID                    : A_EAC3
    Duration                    : 1 h 55 min
    Bit rate mode               : Constant
    Bit rate                    : 768 kb/s
    Channel(s)                  : 6 channels
    Channel layout              : L R C LFE Ls Rs
    Sampling rate               : 48.0 kHz
    Frame rate                  : 31.250 FPS (1536 SPF)
    Compression mode            : Lossy
    Stream size                 : 633 MiB (8%)
    Language                    : English
    Service kind                : Complete Main
    Default                     : No
    Forced                      : No
    Complexity index            : 16
    Number of dynamic objects   : 15
    Bed channel count           : 1 channel
    Bed channel configuration   : LFE

    Text #1
    ID                          : 4
    Format                      : UTF-8
    Codec ID                    : S_TEXT/UTF8
    Codec ID/Info               : UTF-8 Plain Text
    Duration                    : 3 min 21 s
    Bit rate                    : 2 b/s
    Count of elements           : 3
    Stream size                 : 73.0 Bytes (0%)
    Title                       : Forzados
    Language                    : Spanish
    Default                     : Yes
    Forced                      : No

    Text #2
    ID                          : 5
    Format                      : UTF-8
    Codec ID                    : S_TEXT/UTF8
    Codec ID/Info               : UTF-8 Plain Text
    Duration                    : 1 h 43 min
    Bit rate                    : 30 b/s
    Count of elements           : 783
    Stream size                 : 23.6 KiB (0%)
    Title                       : Completos
    Language                    : Spanish
    Default                     : No
    Forced                      : No

  • Peso: 7.65 GiB

Sinopsis

El Emperador de China emite un decreto para reclutar a un varón por cada familia que deberá servir en el Ejército Imperial para defender al país de los invasores del Norte. Hua Mulán, hija única de un condecorado guerrero, se presenta para evitar que su anciano padre sea llamado a filas. Se hace pasar por un hombre, Hua Jun y se somete a todo tipo de pruebas. Para conseguirlo deberá apelar a su fuerza interior y sacar a la luz todo su potencial. Se trata de una aventura épica que la transformará en una guerrera laureada que la hará merecedora del respeto de todo un país y motivo de orgullo para su padre. “Mulán» cuenta con un famoso reparto internacional que incluye a Yifei Liu como Mulán; a Donnie Yen como el Comandante Tung; a Jason Scott Lee como Böri Khan; a Yoson An como Cheng Honghui; con Gong Li como Xianniang y Jet Li como el Emperador.

 

Latino:  E-AC3 5.1 [DSNY+]  –  Ingles: E-AC3 5.1 [DSNY+]

Ficha técnica

Video trailer de la película

Enlaces de descarga

Rip de Bluray

Descargar Mulan (2020) WEB-DL 1080p Latino [DSNY+] – CMHDD




Aportes de DPeliculasHDmega la pass es:dpeliculashdmega.org Aportes de CinemaniaHD la pass es:cinemaniahdd.com
Guardado en : Acción , Bélica , Drama , Fantasía

Películas relacionadas

descargar Mulan (2020) WEB-DL 1080p Latino [DSNY+] – CMHDD WEBDL 1080p gratis, Mulan (2020) WEB-DL 1080p Latino [DSNY+] – CMHDD WEBDL mega 1 link, Mulan (2020) WEB-DL 1080p Latino [DSNY+] – CMHDD WEBDL pelicula completa, descargar Mulan (2020) WEB-DL 1080p Latino [DSNY+] – CMHDD WEBDL gratis en mega.

Mulan (2020) WEB-DL 1080p Latino [DSNY+] – CMHDD pelicula full hd, Mulan (2020) WEB-DL 1080p Latino [DSNY+] – CMHDD mega latino, Mulan (2020) WEB-DL 1080p Latino [DSNY+] – CMHDD 4k latino, Mulan (2020) WEB-DL 1080p Latino [DSNY+] – CMHDD pelicula completa, Mulan (2020) WEB-DL 1080p Latino [DSNY+] – CMHDD descargar gratis, descargar Mulan (2020) WEB-DL 1080p Latino [DSNY+] – CMHDD pelicula latino, Mulan (2020) WEB-DL 1080p Latino [DSNY+] – CMHDD 1 link mega, Mulan (2020) WEB-DL 1080p Latino [DSNY+] – CMHDD 1 link google drive, Mulan (2020) WEB-DL 1080p Latino [DSNY+] – CMHDD hd 1080p latino.
Comentarios 4
  • nobody garcia - 05 septiembre, 2020

    SALUDOS.. muchísimas gracias por el aporte. Por favor quisiera reportar la Parte 10 de Zippyshare que sale que el archivo no existe en el servidor. Reitero las mil gracias de antemano

    • Dracarys - 05 septiembre, 2020

      Puede que ya eliminaron los links. Busca otra forma de descarga

  • Inters - 04 septiembre, 2020

    Agreguen el AC3 LATINO porfavor, ese E-AC3 POCOS TV LO REPRODUCEN

    • Dracarys - 05 septiembre, 2020

      Agregado AC3