×

¿Problemas para descargar con Mozilla, EDGE? Deshabilita la opción "Abrir vinculos en una pestaña nueva" tal como lo muestra ésta imagen.

Mulán (2020) DSNY+ 4K WEB-Rip 2160p Latino

534 vistas

Información de Mulán (2020) DSNY+ 4K WEB-Rip 2160p Latino

Datos de la película

  • Calidad: 4K UHD
  • Audio: Se especifica abajo de la Sinopsis
  • Subtitulos: Español Latino SRT- FORZADOS SRT
  • Resolución: 3840x2160
  • Formato: MKV
  • Codec: H.264
  • Encoder: cinemaniahdd
  • Mediainfo: Clic para Mostrar Datos Ver
  • Mulan (2020) DSNY+ 4K WEB-Rip 2160p Latino [CNMNHDD].mkv
    Format                      : Matroska
    Format version              : Version 4
    File size                   : 11.7 GiB
    Duration                    : 1 h 55 min
    Overall bit rate            : 14.6 Mb/s
    Movie name                  : Mulan (2020) 4K - cinemanaiHDD.Net
    Encoded date                : UTC 2020-09-06 02:05:42
    Writing application         : mkvmerge v46.0.0 ('No Deeper Escape') 64-bit
    Writing library             : libebml v1.3.10 + libmatroska v1.5.2

    Video
    ID                          : 1
    Format                      : AVC
    Format/Info                 : Advanced Video Codec
    Format profile              : Main@L4.1
    Format settings             : CABAC / 1 Ref Frames
    Format settings, CABAC      : Yes
    Format settings, Reference  : 1 frame
    Codec ID                    : V_MPEG4/ISO/AVC
    Duration                    : 1 h 55 min
    Bit rate                    : 13.2 Mb/s
    Width                       : 3 840 pixels
    Height                      : 2 160 pixels
    Display aspect ratio        : 16:9
    Frame rate mode             : Constant
    Frame rate                  : 23.976 (24000/1001) FPS
    Color space                 : YUV
    Chroma subsampling          : 4:2:0
    Bit depth                   : 8 bits
    Scan type                   : Progressive
    Bits/(Pixel*Frame)          : 0.066
    Stream size                 : 10.6 GiB (90%)
    Title                       : CinemaniaHDD
    Writing library             : x264 core 155 r2917 0a84d98
    Encoding settings           : cabac=1 / ref=1 / deblock=1:-1:-1 / analyse=0x1:0x131 / me=umh / subme=10 / psy=1 / psy_rd=1.00:0.15 / mixed_ref=0 / me_range=24 / chroma_me=1 / trellis=2 / 8x8dct=0 / cqm=0 / deadzone=21,11 / fast_pskip=1 / chroma_qp_offset=-3 / threads=12 / lookahead_threads=1 / sliced_threads=0 / nr=0 / decimate=1 / interlaced=0 / bluray_compat=0 / constrained_intra=0 / bframes=0 / weightp=2 / keyint=240 / keyint_min=24 / scenecut=40 / intra_refresh=0 / rc_lookahead=60 / rc=2pass / mbtree=1 / bitrate=13200 / ratetol=1.0 / qcomp=0.60 / qpmin=0 / qpmax=69 / qpstep=4 / cplxblur=20.0 / qblur=0.5 / vbv_maxrate=50000 / vbv_bufsize=62500 / nal_hrd=none / filler=0 / ip_ratio=1.40 / aq=1:1.00
    Default                     : Yes
    Forced                      : No
    Color range                 : Limited
    Color primaries             : BT.709
    Transfer characteristics    : BT.709
    Matrix coefficients         : BT.709

    Audio #1
    ID                          : 2
    Format                      : AC-3
    Format/Info                 : Audio Coding 3
    Commercial name             : Dolby Digital
    Codec ID                    : A_AC3
    Duration                    : 1 h 55 min
    Bit rate mode               : Constant
    Bit rate                    : 384 kb/s
    Channel(s)                  : 6 channels
    Channel layout              : L R C LFE Ls Rs
    Sampling rate               : 48.0 kHz
    Frame rate                  : 31.250 FPS (1536 SPF)
    Compression mode            : Lossy
    Delay relative to video     : -5 ms
    Stream size                 : 316 MiB (3%)
    Title                       : Español latino [CinemaniaHDD]
    Language                    : Spanish
    Service kind                : Complete Main
    Default                     : Yes
    Forced                      : No

    Audio #2
    ID                          : 3
    Format                      : E-AC-3
    Format/Info                 : Enhanced AC-3
    Commercial name             : Dolby Digital Plus
    Codec ID                    : A_EAC3
    Duration                    : 1 h 55 min
    Bit rate mode               : Constant
    Bit rate                    : 256 kb/s
    Channel(s)                  : 6 channels
    Channel layout              : L R C LFE Ls Rs
    Sampling rate               : 48.0 kHz
    Frame rate                  : 31.250 FPS (1536 SPF)
    Compression mode            : Lossy
    Delay relative to video     : -5 ms
    Stream size                 : 211 MiB (2%)
    Title                       : Español latino [CinemaniaHDD]
    Language                    : Spanish
    Service kind                : Complete Main
    Default                     : No
    Forced                      : No

    Audio #3
    ID                          : 4
    Format                      : E-AC-3
    Format/Info                 : Enhanced AC-3
    Commercial name             : Dolby Digital Plus
    Codec ID                    : A_EAC3
    Duration                    : 1 h 55 min
    Bit rate mode               : Constant
    Bit rate                    : 768 kb/s
    Channel(s)                  : 6 channels
    Channel layout              : L R C LFE Ls Rs
    Sampling rate               : 48.0 kHz
    Frame rate                  : 31.250 FPS (1536 SPF)
    Compression mode            : Lossy
    Delay relative to video     : -5 ms
    Stream size                 : 633 MiB (5%)
    Title                       : Inglés [CinemaniaHDD]
    Language                    : English
    Service kind                : Complete Main
    Default                     : No
    Forced                      : No

    Text #1
    ID                          : 5
    Format                      : UTF-8
    Codec ID                    : S_TEXT/UTF8
    Codec ID/Info               : UTF-8 Plain Text
    Duration                    : 3 min 21 s
    Bit rate                    : 2 b/s
    Count of elements           : 3
    Stream size                 : 73.0 Bytes (0%)
    Title                       : Forzados [CinemaniaHDD]
    Language                    : Spanish
    Default                     : Yes
    Forced                      : Yes

    Text #2
    ID                          : 6
    Format                      : UTF-8
    Codec ID                    : S_TEXT/UTF8
    Codec ID/Info               : UTF-8 Plain Text
    Duration                    : 1 h 43 min
    Bit rate                    : 30 b/s
    Count of elements           : 783
    Stream size                 : 23.6 KiB (0%)
    Title                       : Español latino [CinemaniaHDD]
    Language                    : Spanish
    Default                     : No
    Forced                      : No

     

  • Peso: 11.7 GiB

Sinopsis

El Emperador de China emite un decreto para reclutar a un varón por cada familia que deberá servir en el Ejército Imperial para defender al país de los invasores del Norte. Hua Mulán, hija única de un condecorado guerrero, se presenta para evitar que su anciano padre sea llamado a filas. Se hace pasar por un hombre, Hua Jun y se somete a todo tipo de pruebas. Para conseguirlo deberá apelar a su fuerza interior y sacar a la luz todo su potencial. Se trata de una aventura épica que la transformará en una guerrera laureada que la hará merecedora del respeto de todo un país y motivo de orgullo para su padre.

Español Latino E-AC3 5.1 + AC3 5.1 – Ingles E-AC3 5.1

Ficha técnica

Video trailer de la película

Enlaces de descarga

Rip de Bluray

Descargar Mulán (2020) DSNY+ 4K WEB-Rip 2160p Latino




Aportes de DPeliculasHDmega la pass es:dpeliculashdmega.org Aportes de CinemaniaHD la pass es:cinemaniahdd.com
Guardado en : Acción , Bélica , Drama , Fantasía

Películas relacionadas

descargar Mulán (2020) DSNY+ 4K WEB-Rip 2160p Latino 4K UHD 1080p gratis, Mulán (2020) DSNY+ 4K WEB-Rip 2160p Latino 4K UHD mega 1 link, Mulán (2020) DSNY+ 4K WEB-Rip 2160p Latino 4K UHD pelicula completa, descargar Mulán (2020) DSNY+ 4K WEB-Rip 2160p Latino 4K UHD gratis en mega.

Mulán (2020) DSNY+ 4K WEB-Rip 2160p Latino pelicula full hd, Mulán (2020) DSNY+ 4K WEB-Rip 2160p Latino mega latino, Mulán (2020) DSNY+ 4K WEB-Rip 2160p Latino 4k latino, Mulán (2020) DSNY+ 4K WEB-Rip 2160p Latino pelicula completa, Mulán (2020) DSNY+ 4K WEB-Rip 2160p Latino descargar gratis, descargar Mulán (2020) DSNY+ 4K WEB-Rip 2160p Latino pelicula latino, Mulán (2020) DSNY+ 4K WEB-Rip 2160p Latino 1 link mega, Mulán (2020) DSNY+ 4K WEB-Rip 2160p Latino 1 link google drive, Mulán (2020) DSNY+ 4K WEB-Rip 2160p Latino hd 1080p latino.
Comentarios 2
  • fer - 06 septiembre, 2020

    No sirven las contraseñas para descomprimir… no las aceptas ninguna de las 2

    • Dracarys - 06 septiembre, 2020

      cinemaniahdd.net