×

¿Problemas para descargar con Mozilla, EDGE? Deshabilita la opción "Abrir vinculos en una pestaña nueva" tal como lo muestra ésta imagen.

Mulan (1998) REMUX 1080p Latino – CMHDD

430 vistas

Información de Mulan (1998) REMUX 1080p Latino – CMHDD

Datos de la película

  • Calidad: Full 1080p
  • Audio: Español Latino AC3 5.1 BLURAY - Ingles DTS 5.1 BLURAY
  • Subtitulos: Español Latino SRT
  • Resolución: 1920x1080p
  • Formato: MKV
  • Codec: H.264
  • Encoder: Dracarys
  • Mediainfo: Clic para Mostrar Datos Ver
  • Format                      : Matroska
    Format version              : Version 4
    File size                   : 17.6 GiB
    Duration                    : 1 h 27 min
    Overall bit rate mode       : Variable
    Overall bit rate            : 28.6 Mb/s
    Movie name                  : Mulan (1998) REMUX 1080p Latino - CMHDD
    Encoded date                : UTC 2020-08-08 05:27:49
    Writing application         : mkvmerge v46.0.0 ('No Deeper Escape') 64-bit
    Writing library             : libebml v1.3.10 + libmatroska v1.5.2

    Video
    ID                          : 1
    Format                      : AVC
    Format/Info                 : Advanced Video Codec
    Format profile              : High@L4.1
    Format settings             : CABAC / 4 Ref Frames
    Format settings, CABAC      : Yes
    Format settings, Reference  : 4 frames
    Codec ID                    : V_MPEG4/ISO/AVC
    Duration                    : 1 h 27 min
    Bit rate mode               : Variable
    Bit rate                    : 23.5 Mb/s
    Maximum bit rate            : 33.5 Mb/s
    Width                       : 1 920 pixels
    Height                      : 1 080 pixels
    Display aspect ratio        : 16:9
    Frame rate mode             : Constant
    Frame rate                  : 23.976 (24000/1001) FPS
    Color space                 : YUV
    Chroma subsampling          : 4:2:0
    Bit depth                   : 8 bits
    Scan type                   : Progressive
    Bits/(Pixel*Frame)          : 0.474
    Stream size                 : 14.4 GiB (82%)
    Default                     : Yes
    Forced                      : No

    Audio #1
    ID                          : 2
    Format                      : AC-3
    Format/Info                 : Audio Coding 3
    Commercial name             : Dolby Digital
    Codec ID                    : A_AC3
    Duration                    : 1 h 27 min
    Bit rate mode               : Constant
    Bit rate                    : 640 kb/s
    Channel(s)                  : 6 channels
    Channel layout              : L R C LFE Ls Rs
    Sampling rate               : 48.0 kHz
    Frame rate                  : 31.250 FPS (1536 SPF)
    Compression mode            : Lossy
    Stream size                 : 402 MiB (2%)
    Language                    : Spanish
    Service kind                : Complete Main
    Default                     : Yes
    Forced                      : No

    Audio #2
    ID                          : 3
    Format                      : DTS XLL
    Format/Info                 : Digital Theater Systems
    Commercial name             : DTS-HD Master Audio
    Codec ID                    : A_DTS
    Duration                    : 1 h 27 min
    Bit rate mode               : Variable
    Bit rate                    : 4 419 kb/s
    Channel(s)                  : 6 channels
    Channel layout              : C L R Ls Rs LFE
    Sampling rate               : 48.0 kHz
    Frame rate                  : 93.750 FPS (512 SPF)
    Bit depth                   : 24 bits
    Compression mode            : Lossless
    Stream size                 : 2.71 GiB (15%)
    Language                    : English
    Default                     : No
    Forced                      : No

    Text
    ID                          : 4
    Format                      : UTF-8
    Codec ID                    : S_TEXT/UTF8
    Codec ID/Info               : UTF-8 Plain Text
    Duration                    : 1 h 19 min
    Bit rate                    : 47 b/s
    Count of elements           : 863
    Stream size                 : 27.8 KiB (0%)
    Language                    : Spanish
    Default                     : No
    Forced                      : No

  • Peso: 17.6 GiB

Sinopsis

Mulán, una joven china hija única de la familia Fa, en lugar de buscar novio, como sus amigas, trata por todos los medios de alistarse en el ejército imperial para evitar que su anciano padre sea llamado a filas para defender al Emperador del acoso de los Hunos. Cuando el emisario imperial lleva a cabo la orden de reclutar a los varones de todas las familias, Mulán se hará pasar por soldado y se someterá a un duro entrenamiento hasta hacerse merecedora de la estima y de la confianza del resto de su escuadrón.

Ficha técnica

Video trailer de la película

Enlaces de descarga

Rip de Bluray

Descargar Mulan (1998) REMUX 1080p Latino – CMHDD




Aportes de DPeliculasHDmega la pass es:dpeliculashdmega.org Aportes de CinemaniaHD la pass es:cinemaniahdd.com
Guardado en : Animación , Aventura , Familia

Películas relacionadas

  • Lilo, Lilo, cocodrilo (2022) WEB-DL 1080p Latino

    Lilo, Lilo, cocodrilo (2022) WEB-DL 1080p Latino

    2022
    Lilo, Lilo, cocodrilo (2022) WEB-DL 1080p Latino

    1h 46m 2022

    Descargar Lilo, Lilo, cocodrilo (2022) WEB-DL 1080p Latino. Cuando la familia Primm se muda a Nueva York,...

    Director: Will Speck

    Género: Comedia

    Actores: Zeb Slone

  • El Lobo Y El Leon (2021) HD 1080p Latino

    El Lobo Y El Leon (2021) HD 1080p Latino

    2021
    El Lobo Y El Leon (2021) HD 1080p Latino

    1h 39m 2021

    Descargar El Lobo Y El Leon (2021) HD 1080p Latino. A la muerte de su abuelo, Alma, un joven pianista...

    Director: Gilles de Maistre

    Género: Aventura

    Actores: Victor Cornfoot

  • El Lobo Y El Leon (2021) PLACEBO Full HD 1080p Latino

    El Lobo Y El Leon (2021) PLACEBO Full HD 1080p Latino

    2021
    El Lobo Y El Leon (2021) PLACEBO Full HD 1080p Latino

    1h 39m 2021

    Descargar El Lobo Y El Leon (2021) PLACEBO Full HD 1080p Latino. A la muerte de su abuelo, Alma, un joven...

    Director: Gilles de Maistre

    Género: Aventura

    Actores: Victor Cornfoot

  • El Lobo Y El Leon (2021) REMUX 1080p Latino

    El Lobo Y El Leon (2021) REMUX 1080p Latino

    2021
    El Lobo Y El Leon (2021) REMUX 1080p Latino

    1h 39m 2021

    Descargar El Lobo Y El Leon (2021) REMUX 1080p Latino. A la muerte de su abuelo, Alma, un joven pianista...

    Director: Gilles de Maistre

    Género: Aventura

    Actores: Victor Cornfoot

  • Navidad en La Granja (2022) NF WEB-DL 1080p Latino

    Navidad en La Granja (2022) NF WEB-DL 1080p Latino

    2022
    Navidad en La Granja (2022) NF WEB-DL 1080p Latino

    1h 42m 2022

    Tras heredar una granja en Navidad, un viudo se esfuerza por adaptarse a la vida rural... mientras sus...

    Director: Debbie Isitt

    Género: Comedia

    Actores: Stewart Wright

descargar Mulan (1998) REMUX 1080p Latino – CMHDD Full 1080p 1080p gratis, Mulan (1998) REMUX 1080p Latino – CMHDD Full 1080p mega 1 link, Mulan (1998) REMUX 1080p Latino – CMHDD Full 1080p pelicula completa, descargar Mulan (1998) REMUX 1080p Latino – CMHDD Full 1080p gratis en mega.

Mulan (1998) REMUX 1080p Latino – CMHDD pelicula full hd, Mulan (1998) REMUX 1080p Latino – CMHDD mega latino, Mulan (1998) REMUX 1080p Latino – CMHDD 4k latino, Mulan (1998) REMUX 1080p Latino – CMHDD pelicula completa, Mulan (1998) REMUX 1080p Latino – CMHDD descargar gratis, descargar Mulan (1998) REMUX 1080p Latino – CMHDD pelicula latino, Mulan (1998) REMUX 1080p Latino – CMHDD 1 link mega, Mulan (1998) REMUX 1080p Latino – CMHDD 1 link google drive, Mulan (1998) REMUX 1080p Latino – CMHDD hd 1080p latino.
Comentarios 0