×

¿Problemas para descargar con Mozilla, EDGE? Deshabilita la opción "Abrir vinculos en una pestaña nueva" tal como lo muestra ésta imagen.

Mulan (1998) HD 1080p Latino – CMHDD

377 vistas

Información de Mulan (1998) HD 1080p Latino – CMHDD

Datos de la película

  • Calidad: 1080p
  • Audio: Español Latino AC3 5.1 BLURAY - Ingles AC3 5.1 BLURAY
  • Subtitulos: Español Latino SRT
  • Resolución: 1816x1080p
  • Formato: MKV
  • Codec: H.264
  • Encoder: Dracarys
  • Mediainfo: Clic para Mostrar Datos Ver
  • Format                      : Matroska
    Format version              : Version 4
    File size                   : 2.92 GiB
    Duration                    : 1 h 27 min
    Overall bit rate            : 4 762 kb/s
    Movie name                  : Mulan (1998) HD 1080p Latino - CMHDD
    Encoded date                : UTC 2020-08-08 05:31:59
    Writing application         : mkvmerge v46.0.0 ('No Deeper Escape') 64-bit
    Writing library             : libebml v1.3.10 + libmatroska v1.5.2

    Video
    ID                          : 1
    Format                      : AVC
    Format/Info                 : Advanced Video Codec
    Format profile              : High@L4.1
    Format settings             : CABAC / 4 Ref Frames
    Format settings, CABAC      : Yes
    Format settings, Reference  : 4 frames
    Codec ID                    : V_MPEG4/ISO/AVC
    Duration                    : 1 h 27 min
    Bit rate                    : 3 500 kb/s
    Width                       : 1 816 pixels
    Height                      : 1 080 pixels
    Display aspect ratio        : 5:3
    Frame rate mode             : Constant
    Frame rate                  : 23.976 (24000/1001) FPS
    Color space                 : YUV
    Chroma subsampling          : 4:2:0
    Bit depth                   : 8 bits
    Scan type                   : Progressive
    Bits/(Pixel*Frame)          : 0.074
    Stream size                 : 2.14 GiB (73%)
    Writing library             : x264 core 157 r2935 545de2f
    Encoding settings           : cabac=1 / ref=4 / deblock=1:0:0 / analyse=0x3:0x113 / me=hex / subme=8 / psy=1 / psy_rd=1.00:0.00 / mixed_ref=1 / me_range=16 / chroma_me=1 / trellis=2 / 8x8dct=1 / cqm=0 / deadzone=21,11 / fast_pskip=1 / chroma_qp_offset=-2 / threads=24 / lookahead_threads=4 / sliced_threads=0 / nr=0 / decimate=1 / interlaced=0 / bluray_compat=0 / constrained_intra=0 / bframes=3 / b_pyramid=2 / b_adapt=1 / b_bias=0 / direct=3 / weightb=1 / open_gop=0 / weightp=2 / keyint=240 / keyint_min=24 / scenecut=40 / intra_refresh=0 / rc_lookahead=50 / rc=abr / mbtree=1 / bitrate=3500 / ratetol=1.0 / qcomp=0.60 / qpmin=0 / qpmax=69 / qpstep=4 / vbv_maxrate=62500 / vbv_bufsize=78125 / nal_hrd=none / filler=0 / ip_ratio=1.40 / aq=1:1.00
    Default                     : Yes
    Forced                      : No
    Color range                 : Limited
    Color primaries             : BT.709
    Transfer characteristics    : BT.709
    Matrix coefficients         : BT.709

    Audio #1
    ID                          : 2
    Format                      : AC-3
    Format/Info                 : Audio Coding 3
    Commercial name             : Dolby Digital
    Codec ID                    : A_AC3
    Duration                    : 1 h 27 min
    Bit rate mode               : Constant
    Bit rate                    : 640 kb/s
    Channel(s)                  : 6 channels
    Channel layout              : L R C LFE Ls Rs
    Sampling rate               : 48.0 kHz
    Frame rate                  : 31.250 FPS (1536 SPF)
    Compression mode            : Lossy
    Delay relative to video     : -5 ms
    Stream size                 : 402 MiB (13%)
    Language                    : Spanish
    Service kind                : Complete Main
    Default                     : Yes
    Forced                      : No

    Audio #2
    ID                          : 3
    Format                      : AC-3
    Format/Info                 : Audio Coding 3
    Commercial name             : Dolby Digital
    Codec ID                    : A_AC3
    Duration                    : 1 h 27 min
    Bit rate mode               : Constant
    Bit rate                    : 640 kb/s
    Channel(s)                  : 6 channels
    Channel layout              : L R C LFE Ls Rs
    Sampling rate               : 48.0 kHz
    Frame rate                  : 31.250 FPS (1536 SPF)
    Compression mode            : Lossy
    Delay relative to video     : -5 ms
    Stream size                 : 402 MiB (13%)
    Language                    : English
    Service kind                : Complete Main
    Default                     : No
    Forced                      : No

    Text
    ID                          : 4
    Format                      : UTF-8
    Codec ID                    : S_TEXT/UTF8
    Codec ID/Info               : UTF-8 Plain Text
    Duration                    : 1 h 19 min
    Bit rate                    : 47 b/s
    Count of elements           : 863
    Stream size                 : 27.8 KiB (0%)
    Language                    : Spanish
    Default                     : No
    Forced                      : No

    Menu
    00:00:00.000                : :Chapter 1
    00:00:59.184                : :Chapter 2
    00:03:06.353                : :Chapter 3
    00:06:07.075                : :Chapter 4
    00:09:06.421                : :Chapter 5
    00:11:55.006                : :Chapter 6
    00:14:13.811                : :Chapter 7
    00:17:22.917                : :Chapter 8
    00:20:24.932                : :Chapter 9
    00:23:14.143                : :Chapter 10
    00:25:26.275                : :Chapter 11
    00:26:56.949                : :Chapter 12
    00:29:10.582                : :Chapter 13
    00:32:54.347                : :Chapter 14
    00:34:49.212                : :Chapter 15
    00:37:31.249                : :Chapter 16
    00:42:07.608                : :Chapter 17
    00:45:49.872                : :Chapter 18
    00:46:45.553                : :Chapter 19
    00:47:33.684                : :Chapter 20
    00:49:48.694                : :Chapter 21
    00:54:38.275                : :Chapter 22
    00:59:49.419                : :Chapter 23
    01:04:20.357                : :Chapter 24
    01:06:02.125                : :Chapter 25
    01:08:47.040                : :Chapter 26
    01:11:41.297                : :Chapter 27
    01:15:44.123                : :Chapter 28
    01:18:53.187                : :Chapter 29
    01:20:57.478                : :Chapter 30

  • Peso: 2.92 GiB

Sinopsis

Mulán, una joven china hija única de la familia Fa, en lugar de buscar novio, como sus amigas, trata por todos los medios de alistarse en el ejército imperial para evitar que su anciano padre sea llamado a filas para defender al Emperador del acoso de los Hunos. Cuando el emisario imperial lleva a cabo la orden de reclutar a los varones de todas las familias, Mulán se hará pasar por soldado y se someterá a un duro entrenamiento hasta hacerse merecedora de la estima y de la confianza del resto de su escuadrón.

Ficha técnica

Video trailer de la película

Enlaces de descarga

Rip de Bluray

Descargar Mulan (1998) HD 1080p Latino – CMHDD




Aportes de DPeliculasHDmega la pass es:dpeliculashdmega.org Aportes de CinemaniaHD la pass es:cinemaniahdd.com
Guardado en : Animación , Aventura , Familia , HD 1080p

Películas relacionadas

descargar Mulan (1998) HD 1080p Latino – CMHDD 1080p 1080p gratis, Mulan (1998) HD 1080p Latino – CMHDD 1080p mega 1 link, Mulan (1998) HD 1080p Latino – CMHDD 1080p pelicula completa, descargar Mulan (1998) HD 1080p Latino – CMHDD 1080p gratis en mega.

Mulan (1998) HD 1080p Latino – CMHDD pelicula full hd, Mulan (1998) HD 1080p Latino – CMHDD mega latino, Mulan (1998) HD 1080p Latino – CMHDD 4k latino, Mulan (1998) HD 1080p Latino – CMHDD pelicula completa, Mulan (1998) HD 1080p Latino – CMHDD descargar gratis, descargar Mulan (1998) HD 1080p Latino – CMHDD pelicula latino, Mulan (1998) HD 1080p Latino – CMHDD 1 link mega, Mulan (1998) HD 1080p Latino – CMHDD 1 link google drive, Mulan (1998) HD 1080p Latino – CMHDD hd 1080p latino.
Comentarios 0