×

¿Problemas para descargar con Mozilla, EDGE? Deshabilita la opción "Abrir vinculos en una pestaña nueva" tal como lo muestra ésta imagen.

Mujercitas (2019) 1080p Latino

1.854 vistas

Información de Mujercitas (2019) 1080p Latino

Datos de la película

  • Calidad: 1080p
  • Audio: Español Latino AC3 5.1 BLURAY - Ingles AC3 5.1 BLURAY
  • Subtitulos: Español Latino SRT - Ingles SRT
  • Resolución: 1920x1036
  • Formato: MKV
  • Codec: H.264
  • Encoder: CinefiloCool
  • Mediainfo: Clic para Mostrar Datos Ver
  • Little Women (2019) 1080p Latino-CMHDD.mkv
    Format                      : Matroska
    Format version              : Version 4
    File size                   : 4.32 GiB
    Duration                    : 2 h 14 min
    Overall bit rate            : 4 587 kb/s
    Movie name                  : Little Women (2019) CinemaniaHDD.Net
    Encoded date                : UTC 2020-03-29 10:51:24
    Writing application         : mkvmerge v42.0.0 ('Overtime') 64-bit
    Writing library             : libebml v1.3.10 + libmatroska v1.5.2
    Attachments                 : CINEMANIAHD.png

    Video
    ID                          : 1
    Format                      : AVC
    Format/Info                 : Advanced Video Codec
    Format profile              : High@L4.1
    Format settings             : CABAC / 4 Ref Frames
    Format settings, CABAC      : Yes
    Format settings, ReFrames   : 4 frames
    Codec ID                    : V_MPEG4/ISO/AVC
    Duration                    : 2 h 14 min
    Bit rate                    : 3 500 kb/s
    Width                       : 1 920 pixels
    Height                      : 1 036 pixels
    Display aspect ratio        : 1.85:1
    Frame rate mode             : Constant
    Frame rate                  : 23.976 (24000/1001) FPS
    Color space                 : YUV
    Chroma subsampling          : 4:2:0
    Bit depth                   : 8 bits
    Scan type                   : Progressive
    Bits/(Pixel*Frame)          : 0.073
    Stream size                 : 3.29 GiB (76%)
    Title                       : HD1080p [Bluray]
    Writing library             : x264 core 157 r2935 545de2f
    Encoding settings           : cabac=1 / ref=4 / deblock=1:-1:-1 / analyse=0x3:0x133 / me=umh / subme=9 / psy=1 / psy_rd=1.00:0.15 / mixed_ref=1 / me_range=16 / chroma_me=1 / trellis=2 / 8x8dct=1 / cqm=0 / deadzone=21,11 / fast_pskip=1 / chroma_qp_offset=-3 / threads=32 / lookahead_threads=2 / sliced_threads=0 / nr=0 / decimate=1 / interlaced=0 / bluray_compat=0 / constrained_intra=0 / bframes=3 / b_pyramid=2 / b_adapt=2 / b_bias=0 / direct=3 / weightb=1 / open_gop=0 / weightp=2 / keyint=240 / keyint_min=24 / scenecut=40 / intra_refresh=0 / rc_lookahead=60 / rc=2pass / mbtree=1 / bitrate=3500 / ratetol=1.0 / qcomp=0.60 / qpmin=0 / qpmax=69 / qpstep=4 / cplxblur=20.0 / qblur=0.5 / vbv_maxrate=62500 / vbv_bufsize=78125 / nal_hrd=none / filler=0 / ip_ratio=1.40 / aq=1:1.00
    Default                     : Yes
    Forced                      : Yes
    Color range                 : Limited
    Color primaries             : BT.709
    Transfer characteristics    : BT.709
    Matrix coefficients         : BT.709

    Audio #1
    ID                          : 2
    Format                      : AC-3
    Format/Info                 : Audio Coding 3
    Commercial name             : Dolby Digital
    Codec ID                    : A_AC3
    Duration                    : 2 h 14 min
    Bit rate mode               : Constant
    Bit rate                    : 640 kb/s
    Channel(s)                  : 6 channels
    Channel layout              : L R C LFE Ls Rs
    Sampling rate               : 48.0 kHz
    Frame rate                  : 31.250 FPS (1536 SPF)
    Bit depth                   : 16 bits
    Compression mode            : Lossy
    Delay relative to video     : 24 ms
    Stream size                 : 618 MiB (14%)
    Title                       : AC3_5.1_Bluray_Esp
    Language                    : Spanish
    Service kind                : Complete Main
    Default                     : Yes
    Forced                      : Yes

    Audio #2
    ID                          : 3
    Format                      : AC-3
    Format/Info                 : Audio Coding 3
    Commercial name             : Dolby Digital
    Codec ID                    : A_AC3
    Duration                    : 2 h 14 min
    Bit rate mode               : Constant
    Bit rate                    : 448 kb/s
    Channel(s)                  : 6 channels
    Channel layout              : L R C LFE Ls Rs
    Sampling rate               : 48.0 kHz
    Frame rate                  : 31.250 FPS (1536 SPF)
    Bit depth                   : 16 bits
    Compression mode            : Lossy
    Delay relative to video     : -5 ms
    Stream size                 : 432 MiB (10%)
    Title                       : AC3_5.1_Bluray_Eng
    Language                    : English
    Service kind                : Complete Main
    Default                     : No
    Forced                      : No

    Text #1
    ID                          : 4
    Format                      : UTF-8
    Codec ID                    : S_TEXT/UTF8
    Codec ID/Info               : UTF-8 Plain Text
    Duration                    : 2 h 13 min
    Bit rate                    : 0 b/s
    Count of elements           : 3
    Stream size                 : 142 Bytes (0%)
    Title                       : Sub_Forzados
    Language                    : Spanish
    Default                     : Yes
    Forced                      : Yes

    Text #2
    ID                          : 5
    Format                      : UTF-8
    Codec ID                    : S_TEXT/UTF8
    Codec ID/Info               : UTF-8 Plain Text
    Duration                    : 2 h 13 min
    Bit rate                    : 59 b/s
    Count of elements           : 1692
    Stream size                 : 58.1 KiB (0%)
    Title                       : Sub_Esp
    Language                    : Spanish
    Default                     : No
    Forced                      : No

    Text #3
    ID                          : 6
    Format                      : UTF-8
    Codec ID                    : S_TEXT/UTF8
    Codec ID/Info               : UTF-8 Plain Text
    Duration                    : 2 h 5 min
    Bit rate                    : 66 b/s
    Count of elements           : 1911
    Stream size                 : 60.9 KiB (0%)
    Title                       : Sub_Eng
    Language                    : English
    Default                     : No
    Forced                      : No

    Menu
    00:00:00.000                : :Studio Logos
    00:00:57.933                : :Quote
    00:01:05.941                : :Jo pitches a story
    00:04:41.990                : :Title Sequence
    00:04:44.993                : :Distracted writing
    00:06:02.946                : :Amy runs into an old friend
    00:08:38.935                : :Meg buys some fabric
    00:09:40.997                : :Beth plays the piano
    00:10:09.943                : :A night on the town
    00:17:58.953                : :A gift from Friedrich
    00:19:17.990                : :Laurie embarasses Amy
    00:21:27.953                : :Friedrich critiques Jo's writing
    00:24:37.977                : :Christmas morning
    00:33:32.969                : :Friedrich inquires about Jo
    00:33:51.947                : :Making your way in the world
    00:37:01.970                : :Amy acts out at school
    00:40:42.941                : :Letting Laurie into the group
    00:43:23.935                : :Jo returns home
    00:44:39.969                : :Amy takes revenge against Jo
    00:53:21.990                : :Attending a debutante ball
    01:01:23.013                : :Meg wants nice things
    01:03:13.957                : :Amy wants more from the world
    01:07:28.002                : :A day at the beach
    01:10:05.952                : :Supporting war efforts
    01:13:34.952                : :Laurie confesses to Amy
    01:16:24.955                : :A gift for Beth
    01:22:02.960                : :Amy is their last hope
    01:24:28.939                : :Fighting off sickness
    01:31:19.933                : :Not everyone is suited for marriage
    01:39:53.946                : :The sting of loneliness
    01:43:02.968                : :Husband and wife
    01:49:37.988                : :A life without Beth
    01:50:45.973                : :A story for Beth
    01:54:21.938                : :A gift from Aunt March
    01:56:03.957                : :An unexpected visitor
    02:01:37.957                : :A story with fans
    02:02:09.989                : :A change in the ending
    02:06:21.949                : :A celebration of a life well lived
    02:09:48.990                : :End Credits

  • Peso: 4.32 GiB

Sinopsis

Descargar Mujercitas (2019) 1080p Latino. Amy, Jo, Beth y Meg son cuatro hermanas adolescentes que se embarcan en unas vacaciones con su madre, pero sin su padre, un evangelista itinerante. A medida que atraviesan el estado de Massachusetts, sumido en plena Guerra Civil, descubren el amor y la importancia de los lazos familiares.

Ficha técnica

Video trailer de la película

Enlaces de descarga

Rip de Bluray

Descargar Mujercitas (2019) 1080p Latino




Aportes de DPeliculasHDmega la pass es:dpeliculashdmega.org Aportes de CinemaniaHD la pass es:cinemaniahdd.com
Guardado en : Drama , HD 1080p , Romance

Películas relacionadas

  • Stromboli (2022) NF WEB-DL 1080p Latino

    Stromboli (2022) NF WEB-DL 1080p Latino

    2022
    Stromboli (2022) NF WEB-DL 1080p Latino

    1h 26m 2022

    Descargar Stromboli (2022) NF WEB-DL 1080p Latino. Sara, una mujer que se ha divorciado recientemente,...

    Director: Michiel van Erp

    Género: Drama

    Actores: Tim McInnerny

  • Infiesto (2023) NF WEB-DL 1080p Castellano

    Infiesto (2023) NF WEB-DL 1080p Castellano

    2023
    Infiesto (2023) NF WEB-DL 1080p Castellano

    1h 36m 2023

    Descargar Infiesto (2023) NF WEB-DL 1080p Castellano. Mientras el coronavirus trastoca sus vidas, dos...

    Director: Patxi Amezcua

    Género: Crimen

    Actores: Luis Zahera

  • Espiritu Libre (2023) NF WEB-DL 1080p Latino

    Espiritu Libre (2023) NF WEB-DL 1080p Latino

    2023
    Espiritu Libre (2023) NF WEB-DL 1080p Latino

    1h 49m 2023

    Descargar Espiritu Libre (2023) NF WEB-DL 1080p Latino. La película se basa en la increíble historia...

    Director: Sarah Spillane

    Género: Aventura

    Actores: Vivien Turner

  • Un mundo extraño (2022) HD BDRip 1080p Latino

    Un mundo extraño (2022) HD BDRip 1080p Latino

    2022
    Un mundo extraño (2022) HD BDRip 1080p Latino

    1h 42m 2022

    Descargar Un mundo extraño (2022) HD BDRip 1080p Latino. Los Clades son una familia conocida en todo...

    Director: Thai Bettistea

    Género: Animación

    Actores: Reed Buck

  • Juego de espías (2001) 1080p Latino

    Juego de espías (2001) 1080p Latino

    2001
    Juego de espías (2001) 1080p Latino

    2h 6m 2001

    Descargar Juego de espías (2001) 1080p Latino. Corre el año 1991, y al veterano agente de la CIA Nathan...

    Director: Tony Scott

    Género: Acción

    Actores: Zsolt Zágoni

descargar Mujercitas (2019) 1080p Latino 1080p 1080p gratis, Mujercitas (2019) 1080p Latino 1080p mega 1 link, Mujercitas (2019) 1080p Latino 1080p pelicula completa, descargar Mujercitas (2019) 1080p Latino 1080p gratis en mega.

Mujercitas (2019) 1080p Latino pelicula full hd, Mujercitas (2019) 1080p Latino mega latino, Mujercitas (2019) 1080p Latino 4k latino, Mujercitas (2019) 1080p Latino pelicula completa, Mujercitas (2019) 1080p Latino descargar gratis, descargar Mujercitas (2019) 1080p Latino pelicula latino, Mujercitas (2019) 1080p Latino 1 link mega, Mujercitas (2019) 1080p Latino 1 link google drive, Mujercitas (2019) 1080p Latino hd 1080p latino.
Comentarios 0