×

¿Problemas para descargar con Mozilla, EDGE? Deshabilita la opción "Abrir vinculos en una pestaña nueva" tal como lo muestra ésta imagen.

Mujercitas (2019) Full HD 1080p Latino

1.155 vistas

Información de Mujercitas (2019) Full HD 1080p Latino

Datos de la película

  • Calidad: Full 1080p
  • Audio: Español Latino AC3 5.1 BLURAY - Ingles DTS 5.1 BLURAY
  • Subtitulos: Español Latino PGS - Ingles PGS
  • Resolución: 1920x1080p
  • Formato: MKV
  • Codec: H.264
  • Encoder: CinefiloCool
  • Mediainfo: Clic para Mostrar Datos Ver
  • Little Women (2019) Full HD 1080p Latino-CMHDD.mkv
    Format                      : Matroska
    Format version              : Version 4
    File size                   : 8.18 GiB
    Duration                    : 2 h 14 min
    Overall bit rate            : 8 680 kb/s
    Movie name                  : Little Women (2019) CinemaniaHDD.Net
    Encoded date                : UTC 2020-03-31 08:47:26
    Writing application         : mkvmerge v42.0.0 ('Overtime') 64-bit
    Writing library             : libebml v1.3.10 + libmatroska v1.5.2
    Attachments                 : CINEMANIAHD.png

    Video
    ID                          : 1
    Format                      : AVC
    Format/Info                 : Advanced Video Codec
    Format profile              : High@L4.1
    Format settings             : CABAC / 4 Ref Frames
    Format settings, CABAC      : Yes
    Format settings, ReFrames   : 4 frames
    Codec ID                    : V_MPEG4/ISO/AVC
    Duration                    : 2 h 14 min
    Bit rate                    : 6 490 kb/s
    Width                       : 1 920 pixels
    Height                      : 1 080 pixels
    Display aspect ratio        : 16:9
    Frame rate mode             : Constant
    Frame rate                  : 23.976 (24000/1001) FPS
    Color space                 : YUV
    Chroma subsampling          : 4:2:0
    Bit depth                   : 8 bits
    Scan type                   : Progressive
    Bits/(Pixel*Frame)          : 0.131
    Stream size                 : 6.12 GiB (75%)
    Title                       : Full HD1080p [Bluray]
    Writing library             : x264 core 157 r2935 545de2f
    Encoding settings           : cabac=1 / ref=4 / deblock=1:0:0 / analyse=0x3:0x133 / me=tesa / subme=11 / psy=1 / psy_rd=1.00:0.00 / mixed_ref=1 / me_range=24 / chroma_me=1 / trellis=2 / 8x8dct=1 / cqm=0 / deadzone=21,11 / fast_pskip=0 / chroma_qp_offset=-2 / threads=34 / lookahead_threads=8 / sliced_threads=0 / nr=0 / decimate=1 / interlaced=0 / bluray_compat=0 / constrained_intra=0 / bframes=16 / b_pyramid=2 / b_adapt=2 / b_bias=0 / direct=3 / weightb=1 / open_gop=0 / weightp=2 / keyint=240 / keyint_min=24 / scenecut=40 / intra_refresh=0 / rc_lookahead=60 / rc=crf / mbtree=1 / crf=19.0 / qcomp=0.60 / qpmin=0 / qpmax=69 / qpstep=4 / vbv_maxrate=62500 / vbv_bufsize=78125 / crf_max=0.0 / nal_hrd=none / filler=0 / ip_ratio=1.40 / aq=1:1.00
    Default                     : Yes
    Forced                      : Yes
    Color range                 : Limited
    Color primaries             : BT.709
    Transfer characteristics    : BT.709
    Matrix coefficients         : BT.709

    Audio #1
    ID                          : 2
    Format                      : AC-3
    Format/Info                 : Audio Coding 3
    Commercial name             : Dolby Digital
    Codec ID                    : A_AC3
    Duration                    : 2 h 14 min
    Bit rate mode               : Constant
    Bit rate                    : 640 kb/s
    Channel(s)                  : 6 channels
    Channel layout              : L R C LFE Ls Rs
    Sampling rate               : 48.0 kHz
    Frame rate                  : 31.250 FPS (1536 SPF)
    Bit depth                   : 16 bits
    Compression mode            : Lossy
    Delay relative to video     : 24 ms
    Stream size                 : 618 MiB (7%)
    Title                       : AC3_5.1_Bluray_Esp
    Language                    : Spanish
    Service kind                : Complete Main
    Default                     : Yes
    Forced                      : Yes

    Audio #2
    ID                          : 3
    Format                      : DTS
    Format/Info                 : Digital Theater Systems
    Codec ID                    : A_DTS
    Duration                    : 2 h 14 min
    Bit rate mode               : Constant
    Bit rate                    : 1 509 kb/s
    Channel(s)                  : 6 channels
    Channel layout              : C L R Ls Rs LFE
    Sampling rate               : 48.0 kHz
    Frame rate                  : 93.750 FPS (512 SPF)
    Bit depth                   : 24 bits
    Compression mode            : Lossy
    Stream size                 : 1.42 GiB (17%)
    Title                       : DTS_5.1_Bluray_Eng
    Language                    : English
    Default                     : No
    Forced                      : No

    Text #1
    ID                          : 4
    Format                      : PGS
    Muxing mode                 : zlib
    Codec ID                    : S_HDMV/PGS
    Codec ID/Info               : Picture based subtitle format used on BDs/HD-DVDs
    Duration                    : 2 h 13 min
    Bit rate                    : 89 b/s
    Count of elements           : 6
    Stream size                 : 87.6 KiB (0%)
    Title                       : Sub_Forzados [PGS]
    Language                    : Spanish
    Default                     : Yes
    Forced                      : Yes

    Text #2
    ID                          : 5
    Format                      : PGS
    Muxing mode                 : zlib
    Codec ID                    : S_HDMV/PGS
    Codec ID/Info               : Picture based subtitle format used on BDs/HD-DVDs
    Duration                    : 2 h 13 min
    Bit rate                    : 35.7 kb/s
    Count of elements           : 3384
    Stream size                 : 34.1 MiB (0%)
    Title                       : Sub_Esp [PGS]
    Language                    : Spanish
    Default                     : No
    Forced                      : No

    Text #3
    ID                          : 6
    Format                      : PGS
    Muxing mode                 : zlib
    Codec ID                    : S_HDMV/PGS
    Codec ID/Info               : Picture based subtitle format used on BDs/HD-DVDs
    Duration                    : 2 h 5 min
    Bit rate                    : 41.1 kb/s
    Count of elements           : 3328
    Stream size                 : 36.8 MiB (0%)
    Title                       : Sub_Eng [PGS]
    Language                    : English
    Default                     : No
    Forced                      : No

    Text #4
    ID                          : 7
    Format                      : UTF-8
    Codec ID                    : S_TEXT/UTF8
    Codec ID/Info               : UTF-8 Plain Text
    Duration                    : 2 h 13 min
    Bit rate                    : 0 b/s
    Count of elements           : 3
    Stream size                 : 142 Bytes (0%)
    Title                       : Sub_Forzados
    Language                    : Spanish
    Default                     : No
    Forced                      : No

    Text #5
    ID                          : 8
    Format                      : UTF-8
    Codec ID                    : S_TEXT/UTF8
    Codec ID/Info               : UTF-8 Plain Text
    Duration                    : 2 h 13 min
    Bit rate                    : 59 b/s
    Count of elements           : 1692
    Stream size                 : 58.1 KiB (0%)
    Title                       : Sub_Esp
    Language                    : Spanish
    Default                     : No
    Forced                      : No

    Menu
    00:00:00.931                : en:Studio Logos
    00:00:57.931                : en:Quote
    00:01:05.931                : en:Jo pitches a story
    00:04:41.931                : en:Title Sequence
    00:04:44.931                : en:Distracted writing
    00:06:02.931                : en:Amy runs into an old friend
    00:08:38.931                : en:Meg buys some fabric
    00:09:40.931                : en:Beth plays the piano
    00:10:09.931                : en:A night on the town
    00:17:58.931                : en:A gift from Friedrich
    00:19:17.931                : en:Laurie embarasses Amy
    00:21:27.931                : en:Friedrich critiques Jo's writing
    00:24:37.931                : en:Christmas morning
    00:33:32.931                : en:Friedrich inquires about Jo
    00:33:51.931                : en:Making your way in the world
    00:37:01.931                : en:Amy acts out at school
    00:40:42.931                : en:Letting Laurie into the group
    00:43:23.931                : en:Jo returns home
    00:44:39.931                : en:Amy takes revenge against Jo
    00:53:21.931                : en:Attending a debutante ball
    01:01:22.931                : en:Meg wants nice things
    01:03:13.931                : en:Amy wants more from the world
    01:07:27.931                : en:A day at the beach
    01:10:05.931                : en:Supporting war efforts
    01:13:34.931                : en:Laurie confesses to Amy
    01:16:24.931                : en:A gift for Beth
    01:22:02.931                : en:Amy is their last hope
    01:24:28.931                : en:Fighting off sickness
    01:31:19.931                : en:Not everyone is suited for marriage
    01:39:53.931                : en:The sting of loneliness
    01:43:02.931                : en:Husband and wife
    01:49:37.931                : en:A life without Beth
    01:50:45.931                : en:A story for Beth
    01:54:21.931                : en:A gift from Aunt March
    01:56:03.931                : en:An unexpected visitor
    02:01:37.931                : en:A story with fans
    02:02:09.931                : en:A change in the ending
    02:06:21.931                : en:A celebration of a life well lived
    02:09:48.931                : en:End Credits

  • Peso: 8.18 GiB

Sinopsis

Descargar Mujercitas (2019) Full HD 1080p Latino. Amy, Jo, Beth y Meg son cuatro hermanas adolescentes que se embarcan en unas vacaciones con su madre, pero sin su padre, un evangelista itinerante. A medida que atraviesan el estado de Massachusetts, sumido en plena Guerra Civil, descubren el amor y la importancia de los lazos familiares.

Ficha técnica

Video trailer de la película

Enlaces de descarga

Rip de Bluray

Descargar Mujercitas (2019) Full HD 1080p Latino




Aportes de DPeliculasHDmega la pass es:dpeliculashdmega.org Aportes de CinemaniaHD la pass es:cinemaniahdd.com

Películas relacionadas

descargar Mujercitas (2019) Full HD 1080p Latino Full 1080p 1080p gratis, Mujercitas (2019) Full HD 1080p Latino Full 1080p mega 1 link, Mujercitas (2019) Full HD 1080p Latino Full 1080p pelicula completa, descargar Mujercitas (2019) Full HD 1080p Latino Full 1080p gratis en mega.

Mujercitas (2019) Full HD 1080p Latino pelicula full hd, Mujercitas (2019) Full HD 1080p Latino mega latino, Mujercitas (2019) Full HD 1080p Latino 4k latino, Mujercitas (2019) Full HD 1080p Latino pelicula completa, Mujercitas (2019) Full HD 1080p Latino descargar gratis, descargar Mujercitas (2019) Full HD 1080p Latino pelicula latino, Mujercitas (2019) Full HD 1080p Latino 1 link mega, Mujercitas (2019) Full HD 1080p Latino 1 link google drive, Mujercitas (2019) Full HD 1080p Latino hd 1080p latino.
Comentarios 0