×

¿Problemas para descargar con Mozilla, EDGE? Deshabilita la opción "Abrir vinculos en una pestaña nueva" tal como lo muestra ésta imagen.

Muhammad Ali (2021) REMUX (TV Mini Series) 1080p Latino – CMHDD

438 vistas

Información de Muhammad Ali (2021) REMUX (TV Mini Series) 1080p Latino – CMHDD

Datos de la película

  • Calidad: Full 1080p
  • Audio: Se especifica abajo de la Sinopsis
  • Subtitulos: Español Latino PGS
  • Resolución: 1920x1080p
  • Formato: MKV
  • Codec: H.264
  • Encoder: Dracarys
  • Mediainfo: Clic para Mostrar Datos Ver
  • Format                      : Matroska
    Format version              : Version 4
    File size                   : 28.1 GiB
    Duration                    : 2 h 7 min
    Overall bit rate mode       : Variable
    Overall bit rate            : 31.6 Mb/s
    Movie name                  : Muhammad Ali (2021) REMUX [S01E01] 1080p Latino - CMHDD
    Encoded date                : UTC 2022-01-22 00:23:49
    Writing application         : mkvmerge v17.0.0 ('Be Ur Friend') 64-bit
    Writing library             : libebml v1.3.5 + libmatroska v1.4.8

    Video
    ID                          : 1
    Format                      : AVC
    Format/Info                 : Advanced Video Codec
    Format profile              : High@L4.1
    Format settings             : CABAC / 4 Ref Frames
    Format settings, CABAC      : Yes
    Format settings, Reference  : 4 frames
    Codec ID                    : V_MPEG4/ISO/AVC
    Duration                    : 2 h 7 min
    Bit rate mode               : Variable
    Bit rate                    : 28.0 Mb/s
    Maximum bit rate            : 38.0 Mb/s
    Width                       : 1 920 pixels
    Height                      : 1 080 pixels
    Display aspect ratio        : 16:9
    Frame rate mode             : Constant
    Frame rate                  : 23.976 (24000/1001) FPS
    Color space                 : YUV
    Chroma subsampling          : 4:2:0
    Bit depth                   : 8 bits
    Scan type                   : Progressive
    Bits/(Pixel*Frame)          : 0.562
    Stream size                 : 24.9 GiB (88%)
    Default                     : Yes
    Forced                      : No

    Audio #1
    ID                          : 2
    Format                      : DTS XLL
    Format/Info                 : Digital Theater Systems
    Commercial name             : DTS-HD Master Audio
    Codec ID                    : A_DTS
    Duration                    : 2 h 7 min
    Bit rate mode               : Variable
    Bit rate                    : 1 991 kb/s
    Channel(s)                  : 6 channels
    Channel layout              : C L R Ls Rs LFE
    Sampling rate               : 48.0 kHz
    Frame rate                  : 93.750 FPS (512 SPF)
    Bit depth                   : 16 bits
    Compression mode            : Lossless
    Stream size                 : 1.77 GiB (6%)
    Language                    : English
    Default                     : No
    Forced                      : No

    Audio #2
    ID                          : 3
    Format                      : DTS XLL
    Format/Info                 : Digital Theater Systems
    Commercial name             : DTS-HD Master Audio
    Codec ID                    : A_DTS
    Duration                    : 2 h 7 min
    Bit rate mode               : Variable
    Bit rate                    : 1 636 kb/s
    Channel(s)                  : 2 channels
    Channel layout              : L R
    Sampling rate               : 48.0 kHz
    Frame rate                  : 93.750 FPS (512 SPF)
    Bit depth                   : 16 bits
    Compression mode            : Lossless
    Stream size                 : 1.46 GiB (5%)
    Language                    : Spanish
    Default                     : Yes
    Forced                      : No

    Text
    ID                          : 4
    Format                      : PGS
    Muxing mode                 : zlib
    Codec ID                    : S_HDMV/PGS
    Codec ID/Info               : Picture based subtitle format used on BDs/HD-DVDs
    Duration                    : 2 h 7 min
    Bit rate                    : 55.5 kb/s
    Count of elements           : 5796
    Stream size                 : 50.5 MiB (0%)
    Language                    : Spanish
    Default                     : No
    Forced                      : No

  • Peso: 81,9 GiB Total

Sinopsis

Un profundo acercamiento a la vida del boxeador, Muhammad Ali, incluyendo sus años como activista y filántropo.

 

Latino: DTS-HD MA 2.0  –  Inglés: DTS-HD MA 5,1

Ficha técnica

  • Titulo original: Muhammad Ali
  • Fecha de lanzamiento: 19-09-2021 (US)
  • Director: Ken Burns
  • Género: Documental

Video trailer de la película

Enlaces de descarga

Rip de Bluray

Descargar Muhammad Ali (2021) REMUX (TV Mini Series) 1080p Latino – CMHDD


Aportes de DPeliculasHDmega la pass es:dpeliculashdmega.org Aportes de CinemaniaHD la pass es:cinemaniahdd.com
Guardado en : Documental

Películas relacionadas

  • WWE Evil (2022) Primera Temporada PCOK WEB-DL 1080p Latino

    WWE Evil (2022) Primera Temporada PCOK WEB-DL 1080p Latino

    2022
    WWE Evil (2022) Primera Temporada PCOK WEB-DL 1080p Latino

    0h 45m 2022

    Una "exposición psicológica" de las mentes de los antagonistas más diabólicos en la historia de la...

    Director: John Cena 約翰·希南 江西男,趙喜娜

    Género: Documental

    Actores: John Cena

  • Audrey (2020) HD 1080p Latino

    Audrey (2020) HD 1080p Latino

    2020
    Audrey (2020) HD 1080p Latino

    1h 30m 2020

    Descargar Audrey (2020) HD 1080p Latino. Documental sobre la icónica actriz Audrey Hepburn, una de las...

    Director: Helena Coan

    Género: Documental

    Actores: Sean Hepburn Ferrer

  • Audrey (2020) PLACEBO Full HD 1080p Latino

    Audrey (2020) PLACEBO Full HD 1080p Latino

    2020
    Audrey (2020) PLACEBO Full HD 1080p Latino

    1h 30m 2020

    Descargar Audrey (2020) PLACEBO Full HD 1080p Latino. Documental sobre la icónica actriz Audrey Hepburn,...

    Director: Helena Coan

    Género: Documental

    Actores: Sean Hepburn Ferrer

descargar Muhammad Ali (2021) REMUX (TV Mini Series) 1080p Latino – CMHDD Full 1080p 1080p gratis, Muhammad Ali (2021) REMUX (TV Mini Series) 1080p Latino – CMHDD Full 1080p mega 1 link, Muhammad Ali (2021) REMUX (TV Mini Series) 1080p Latino – CMHDD Full 1080p pelicula completa, descargar Muhammad Ali (2021) REMUX (TV Mini Series) 1080p Latino – CMHDD Full 1080p gratis en mega.

Muhammad Ali (2021) REMUX (TV Mini Series) 1080p Latino – CMHDD pelicula full hd, Muhammad Ali (2021) REMUX (TV Mini Series) 1080p Latino – CMHDD mega latino, Muhammad Ali (2021) REMUX (TV Mini Series) 1080p Latino – CMHDD 4k latino, Muhammad Ali (2021) REMUX (TV Mini Series) 1080p Latino – CMHDD pelicula completa, Muhammad Ali (2021) REMUX (TV Mini Series) 1080p Latino – CMHDD descargar gratis, descargar Muhammad Ali (2021) REMUX (TV Mini Series) 1080p Latino – CMHDD pelicula latino, Muhammad Ali (2021) REMUX (TV Mini Series) 1080p Latino – CMHDD 1 link mega, Muhammad Ali (2021) REMUX (TV Mini Series) 1080p Latino – CMHDD 1 link google drive, Muhammad Ali (2021) REMUX (TV Mini Series) 1080p Latino – CMHDD hd 1080p latino.
Comentarios 0