×

¿Problemas para descargar con Mozilla, EDGE? Deshabilita la opción "Abrir vinculos en una pestaña nueva" tal como lo muestra ésta imagen.

Muerte lnfinta (2023) REMUX 1080p Latino

201 vistas

Información de Muerte lnfinta (2023) REMUX 1080p Latino

Datos de la película

  • Calidad: Full 1080p
  • Audio: Español Latino AC3 5.1 WEB-DL - Ingles DTS 5.1 BLURAY
  • Subtitulos: Español Latino PGS - Ingles PGS
  • Resolución: 1920x1080p
  • Formato: MKV
  • Codec: H.264
  • Encoder: Melkor
  • Mediainfo: Clic para Mostrar Datos Ver
  • Muerte lnfinta (2023) REMUX 1080p Latino.mkv
    Format                      : Matroska
    Format version              : Version 4
    File size                   : 31.0 GiB
    Duration                    : 1 h 57 min
    Overall bit rate mode       : Variable
    Overall bit rate            : 37.8 Mb/s
    Movie name                  : Infinity Pool (2023) CinemaniaHDD.Net
    Encoded date                : UTC 2023-06-14 05:46:25
    Writing application         : mkvmerge v56.1.0 ('My Friend') 64-bit
    Writing library             : libebml v1.4.2 + libmatroska v1.6.4
    Attachments                 : CINEMANIAHD.png
    Site                        : CinemaniaHDD.Net
    Uploader                    : Melkor

    Video
    ID                          : 1
    Format                      : AVC
    Format/Info                 : Advanced Video Codec
    Format profile              : High@L4.1
    Format settings             : CABAC / 4 Ref Frames
    Format settings, CABAC      : Yes
    Format settings, Reference  : 4 frames
    Codec ID                    : V_MPEG4/ISO/AVC
    Duration                    : 1 h 57 min
    Bit rate mode               : Variable
    Bit rate                    : 33.6 Mb/s
    Maximum bit rate            : 37.0 Mb/s
    Width                       : 1 920 pixels
    Height                      : 1 080 pixels
    Display aspect ratio        : 16:9
    Frame rate mode             : Constant
    Frame rate                  : 23.976 (24000/1001) FPS
    Color space                 : YUV
    Chroma subsampling          : 4:2:0
    Bit depth                   : 8 bits
    Scan type                   : Progressive
    Bits/(Pixel*Frame)          : 0.677
    Stream size                 : 27.6 GiB (89%)
    Title                       : REMUX HD1080p [CinemaniaHDD]
    Default                     : Yes
    Forced                      : Yes

    Audio #1
    ID                          : 2
    Format                      : AC-3
    Format/Info                 : Audio Coding 3
    Commercial name             : Dolby Digital
    Codec ID                    : A_AC3
    Duration                    : 1 h 57 min
    Bit rate mode               : Constant
    Bit rate                    : 384 kb/s
    Channel(s)                  : 6 channels
    Channel layout              : L R C LFE Ls Rs
    Sampling rate               : 48.0 kHz
    Frame rate                  : 31.250 FPS (1536 SPF)
    Compression mode            : Lossy
    Stream size                 : 322 MiB (1%)
    Title                       : Español Latino [CinemaniaHDD]
    Language                    : Spanish
    Service kind                : Complete Main
    Default                     : Yes
    Forced                      : Yes

    Audio #2
    ID                          : 3
    ID in the original source m : 4352 (0x1100)
    Format                      : DTS XLL
    Format/Info                 : Digital Theater Systems
    Commercial name             : DTS-HD Master Audio
    Codec ID                    : A_DTS
    Duration                    : 1 h 57 min
    Bit rate mode               : Variable
    Bit rate                    : 3 712 kb/s
    Channel(s)                  : 6 channels
    Channel layout              : C L R Ls Rs LFE
    Sampling rate               : 48.0 kHz
    Frame rate                  : 93.750 FPS (512 SPF)
    Bit depth                   : 24 bits
    Compression mode            : Lossless
    Stream size                 : 3.04 GiB (10%)
    Title                       : Ingles [CinemaniaHDD]
    Language                    : English
    Default                     : No
    Forced                      : No
    Original source medium      : Blu-ray

    Text #1
    ID                          : 4
    ID in the original source m : 4610 (0x1202)
    Format                      : PGS
    Muxing mode                 : zlib
    Codec ID                    : S_HDMV/PGS
    Codec ID/Info               : Picture based subtitle format used on BDs/HD-DVDs
    Duration                    : 1 h 46 min
    Bit rate                    : 15.1 kb/s
    Count of elements           : 2042
    Stream size                 : 11.5 MiB (0%)
    Title                       : Español-PGS [CinemaniaHDD]
    Language                    : Spanish
    Default                     : No
    Forced                      : No
    Original source medium      : Blu-ray

    Text #2
    ID                          : 5
    ID in the original source m : 4608 (0x1200)
    Format                      : PGS
    Muxing mode                 : zlib
    Codec ID                    : S_HDMV/PGS
    Codec ID/Info               : Picture based subtitle format used on BDs/HD-DVDs
    Duration                    : 1 h 47 min
    Bit rate                    : 17.9 kb/s
    Count of elements           : 2298
    Stream size                 : 13.7 MiB (0%)
    Title                       : Ingles [CinemaniaHDD]
    Language                    : English
    Default                     : No
    Forced                      : No
    Original source medium      : Blu-ray

    Text #3
    ID                          : 6
    Format                      : UTF-8
    Codec ID                    : S_TEXT/UTF8
    Codec ID/Info               : UTF-8 Plain Text
    Duration                    : 5 s 0 ms
    Bit rate                    : 32 b/s
    Count of elements           : 1
    Stream size                 : 20.0 Bytes (0%)
    Title                       : Forzados-SRT [CinemaniaHDD]
    Language                    : Spanish
    Default                     : Yes
    Forced                      : Yes

    Text #4
    ID                          : 7
    Format                      : UTF-8
    Codec ID                    : S_TEXT/UTF8
    Codec ID/Info               : UTF-8 Plain Text
    Duration                    : 1 h 46 min
    Bit rate                    : 35 b/s
    Count of elements           : 1005
    Stream size                 : 27.6 KiB (0%)
    Title                       : Español-SRT [CinemaniaHDD]
    Language                    : Spanish
    Default                     : No
    Forced                      : No

    Menu
    00:00:00.000                : Chapter 01
    00:16:02.962                : Chapter 02
    00:27:58.677                : Chapter 03
    00:46:27.075                : Chapter 04
    01:02:44.844                : Chapter 05
    01:19:55.916                : Chapter 06
    01:33:27.476                : Chapter 07
    01:48:23.038                : Chapter 08

  • Peso: 31.0 GiB

Sinopsis

Descargar Muerte lnfinta (2023) REMUX 1080p Latino. Mientras se hospedan en un resort aislado en una isla, James y Em disfrutan de unas vacaciones perfectas en playas vírgenes, un personal excepcional y tomando el sol. Pero guiados por la seductora y misteriosa Gabi, se aventuran fuera de los terrenos del resort y se encuentran en una cultura llena de violencia, hedonismo y horror indescriptible.

Ficha técnica

Video trailer de la película

Enlaces de descarga

Rip de Bluray

Descargar Muerte lnfinta (2023) REMUX 1080p Latino




Aportes de DPeliculasHDmega la pass es:dpeliculashdmega.org Aportes de CinemaniaHD la pass es:cinemaniahdd.com Aportes recientes:cinemaniahdd.net
Guardado en : Ciencia ficción , Remux , Suspenso , Terror

Películas relacionadas

  • La La Land (2016) REMUX 1080p Latino – CMHDD

    La La Land (2016) REMUX 1080p Latino – CMHDD

    2016
    La La Land (2016) REMUX 1080p Latino – CMHDD

    2h 8m 2016

    Mia (Emma Stone), una joven aspirante a actriz que trabaja como camarera mientras acude a castings, y...

    Director: Peter Kohn

    Género: Comedia

    Actores: Zoë Hall

  • El Fin de Los Tiempos (2008) Full HD 1080p Latino-CMHDD

    El Fin de Los Tiempos (2008) Full HD 1080p Latino-CMHDD

    2008
    El Fin de Los Tiempos (2008) Full HD 1080p Latino-CMHDD

    1h 30m 2008

    Descargar El Fin de Los Tiempos (2008) Full HD 1080p Latino-CMHDD. En unos minutos, en las principales...

    Director: Mary Cybulski

    Género: Ciencia ficción

    Actores: Zooey Deschanel

  • El Fin de Los Tiempos (2008) REMUX 1080p Latino-CMHDD

    El Fin de Los Tiempos (2008) REMUX 1080p Latino-CMHDD

    2008
    El Fin de Los Tiempos (2008) REMUX 1080p Latino-CMHDD

    1h 30m 2008

    Descargar El Fin de Los Tiempos (2008) REMUX 1080p Latino-CMHDD. En unos minutos, en las principales...

    Director: M. Night Shyamalan

    Género: Ciencia ficción

    Actores: Zooey Deschanel

  • Victor Frankenstein (2015) REMUX 1080p Latino-CMHDD

    Victor Frankenstein (2015) REMUX 1080p Latino-CMHDD

    2015
    Victor Frankenstein (2015) REMUX 1080p Latino-CMHDD

    1h 50m 2015

    Descargar Victor Frankenstein (2015) REMUX 1080p Latino-CMHDD. En los ambiciosos planes del doctor para...

    Director: Toby Ford

    Género: Ciencia ficción

    Actores: Will Keen

descargar Muerte lnfinta (2023) REMUX 1080p Latino Full 1080p 1080p gratis, Muerte lnfinta (2023) REMUX 1080p Latino Full 1080p mega 1 link, Muerte lnfinta (2023) REMUX 1080p Latino Full 1080p pelicula completa, descargar Muerte lnfinta (2023) REMUX 1080p Latino Full 1080p gratis en mega.

Muerte lnfinta (2023) REMUX 1080p Latino pelicula full hd, Muerte lnfinta (2023) REMUX 1080p Latino mega latino, Muerte lnfinta (2023) REMUX 1080p Latino 4k latino, Muerte lnfinta (2023) REMUX 1080p Latino pelicula completa, Muerte lnfinta (2023) REMUX 1080p Latino descargar gratis, descargar Muerte lnfinta (2023) REMUX 1080p Latino pelicula latino, Muerte lnfinta (2023) REMUX 1080p Latino 1 link mega, Muerte lnfinta (2023) REMUX 1080p Latino 1 link google drive, Muerte lnfinta (2023) REMUX 1080p Latino hd 1080p latino.
Comentarios 0