×

¿Problemas para descargar con Mozilla, EDGE? Deshabilita la opción "Abrir vinculos en una pestaña nueva" tal como lo muestra ésta imagen.

Muerte instantánea (2019) REMUX 1080p Latino

125 vistas

Información de Muerte instantánea (2019) REMUX 1080p Latino

Datos de la película

  • Calidad: Full 1080p
  • Audio: Español Latino AC3 2.0 WEB-DL - Ingles DTS 5.1 BLURAY
  • Subtitulos: Español Latino SRT- FORZADOS SRT
  • Resolución: 1920x1080p
  • Formato: MKV
  • Codec: H.264
  • Encoder: Melkor
  • Mediainfo: Clic para Mostrar Datos Ver
  • Muerte Instantanea (2019) REMUX 1080p Latino.mkv
    Format                      : Matroska
    Format version              : Version 4
    File size                   : 23.8 GiB
    Duration                    : 1 h 27 min
    Overall bit rate mode       : Variable
    Overall bit rate            : 38.6 Mb/s
    Movie name                  : Polaroid (2019) CinemaniaHDD.Net
    Encoded date                : UTC 2021-11-02 23:07:25
    Writing application         : mkvmerge v56.1.0 ('My Friend') 64-bit
    Writing library             : libebml v1.4.2 + libmatroska v1.6.4
    Attachments                 : CINEMANIAHD.png

    Video
    ID                          : 1
    Format                      : AVC
    Format/Info                 : Advanced Video Codec
    Format profile              : High@L4.1
    Format settings             : CABAC / 4 Ref Frames
    Format settings, CABAC      : Yes
    Format settings, Reference  : 4 frames
    Codec ID                    : V_MPEG4/ISO/AVC
    Duration                    : 1 h 27 min
    Bit rate mode               : Variable
    Bit rate                    : 34.6 Mb/s
    Maximum bit rate            : 36.0 Mb/s
    Width                       : 1 920 pixels
    Height                      : 1 080 pixels
    Display aspect ratio        : 16:9
    Frame rate mode             : Constant
    Frame rate                  : 24.000 FPS
    Color space                 : YUV
    Chroma subsampling          : 4:2:0
    Bit depth                   : 8 bits
    Scan type                   : Progressive
    Bits/(Pixel*Frame)          : 0.696
    Stream size                 : 21.3 GiB (90%)
    Title                       : REMUX HD1080p [CinemaniaHDD]
    Language                    : English
    Default                     : Yes
    Forced                      : Yes

    Audio #1
    ID                          : 2
    Format                      : AC-3
    Format/Info                 : Audio Coding 3
    Commercial name             : Dolby Digital
    Codec ID                    : A_AC3
    Duration                    : 1 h 27 min
    Bit rate mode               : Constant
    Bit rate                    : 384 kb/s
    Channel(s)                  : 2 channels
    Channel layout              : L R
    Sampling rate               : 48.0 kHz
    Frame rate                  : 31.250 FPS (1536 SPF)
    Compression mode            : Lossy
    Stream size                 : 242 MiB (1%)
    Title                       : Español Latino [CinemaniaHDD]
    Language                    : Spanish
    Service kind                : Complete Main
    Default                     : Yes
    Forced                      : Yes

    Audio #2
    ID                          : 3
    Format                      : DTS XLL
    Format/Info                 : Digital Theater Systems
    Commercial name             : DTS-HD Master Audio
    Codec ID                    : A_DTS
    Duration                    : 1 h 27 min
    Bit rate mode               : Variable
    Bit rate                    : 3 637 kb/s
    Channel(s)                  : 6 channels
    Channel layout              : C L R Ls Rs LFE
    Sampling rate               : 48.0 kHz
    Frame rate                  : 93.750 FPS (512 SPF)
    Bit depth                   : 24 bits
    Compression mode            : Lossless
    Stream size                 : 2.24 GiB (9%)
    Title                       : Ingles [CinemaniaHDD]
    Language                    : English
    Default                     : No
    Forced                      : No

    Text #1
    ID                          : 4
    Format                      : UTF-8
    Codec ID                    : S_TEXT/UTF8
    Codec ID/Info               : UTF-8 Plain Text
    Duration                    : 43 min 48 s
    Bit rate                    : 0 b/s
    Count of elements           : 9
    Stream size                 : 227 Bytes (0%)
    Title                       : Forzados-SRT [CinemaniaHDD]
    Language                    : Spanish
    Default                     : Yes
    Forced                      : Yes

    Text #2
    ID                          : 5
    Format                      : UTF-8
    Codec ID                    : S_TEXT/UTF8
    Codec ID/Info               : UTF-8 Plain Text
    Duration                    : 1 h 22 min
    Bit rate                    : 36 b/s
    Count of elements           : 782
    Stream size                 : 22.1 KiB (0%)
    Title                       : Español-SRT [CinemaniaHDD]
    Language                    : Spanish
    Default                     : No
    Forced                      : No

    Text #3
    ID                          : 6
    Format                      : UTF-8
    Codec ID                    : S_TEXT/UTF8
    Codec ID/Info               : UTF-8 Plain Text
    Duration                    : 1 h 25 min
    Bit rate                    : 38 b/s
    Count of elements           : 943
    Stream size                 : 24.2 KiB (0%)
    Title                       : Ingles [CinemaniaHDD]
    Language                    : English
    Default                     : No
    Forced                      : No

    Menu
    00:00:00.000                : Chapter 01
    00:07:03.000                : Chapter 02
    00:12:44.708                : Chapter 03
    00:20:39.791                : Chapter 04
    00:27:07.833                : Chapter 05
    00:30:51.125                : Chapter 06
    00:34:17.500                : Chapter 07
    00:39:37.250                : Chapter 08
    00:44:51.875                : Chapter 09
    00:48:46.166                : Chapter 10
    00:53:24.166                : Chapter 11
    00:59:33.583                : Chapter 12
    01:07:28.250                : Chapter 13
    01:12:48.708                : Chapter 14
    01:17:49.541                : Chapter 15
    01:23:02.125                : Chapter 16

  • Peso: 23.8 GiB

Sinopsis

Descargar Muerte instantánea (2019) REMUX 1080p Latino. Basada en el cortometraje ganador en el Festival internacional de cine fantástico de Torremolinos. Una adolescente solitaria, Bird Fitcher, se tropieza con una antigua Polaroid y pronto descubre que la cámara alberga un terrible secreto: cualquiera que se toma una fotografía con ella, tiene un final trágico y violento. Ella y sus amigos deben sobrevivir una noche para resolver el misterio de la cámara «embrujada».

Ficha técnica

Video trailer de la película

Enlaces de descarga

Rip de Bluray

Descargar Muerte instantánea (2019) REMUX 1080p Latino




Aportes de DPeliculasHDmega la pass es:dpeliculashdmega.org Aportes de CinemaniaHD la pass es:cinemaniahdd.com
Guardado en : Misterio , Remux , Suspenso , Terror

Películas relacionadas

descargar Muerte instantánea (2019) REMUX 1080p Latino Full 1080p 1080p gratis, Muerte instantánea (2019) REMUX 1080p Latino Full 1080p mega 1 link, Muerte instantánea (2019) REMUX 1080p Latino Full 1080p pelicula completa, descargar Muerte instantánea (2019) REMUX 1080p Latino Full 1080p gratis en mega.

Muerte instantánea (2019) REMUX 1080p Latino pelicula full hd, Muerte instantánea (2019) REMUX 1080p Latino mega latino, Muerte instantánea (2019) REMUX 1080p Latino 4k latino, Muerte instantánea (2019) REMUX 1080p Latino pelicula completa, Muerte instantánea (2019) REMUX 1080p Latino descargar gratis, descargar Muerte instantánea (2019) REMUX 1080p Latino pelicula latino, Muerte instantánea (2019) REMUX 1080p Latino 1 link mega, Muerte instantánea (2019) REMUX 1080p Latino 1 link google drive, Muerte instantánea (2019) REMUX 1080p Latino hd 1080p latino.
Comentarios 0