×

¿Problemas para descargar con Mozilla, EDGE? Deshabilita la opción "Abrir vinculos en una pestaña nueva" tal como lo muestra ésta imagen.

Muerte en el Nilo (2022) WEB-DL 4K UHD HDR Latino

1.066 vistas

Información de Muerte en el Nilo (2022) WEB-DL 4K UHD HDR Latino

Datos de la película

  • Calidad: WEBDL
  • Audio: Se especifica abajo de la Sinopsis
  • Subtitulos: Español Latino SRT- FORZADOS SRT
  • Resolución: 3840x1606p
  • Formato: MKV
  • Codec: HEVC
  • Encoder: Melkor
  • Mediainfo: Clic para Mostrar Datos Ver
  • Muerte En El Nilo (2022) WEB UHD HDR Latino.mkv
    Format                      : Matroska
    Format version              : Version 4
    File size                   : 13.9 GiB
    Duration                    : 2 h 6 min
    Overall bit rate            : 15.6 Mb/s
    Movie name                  : Death On The Nile (2022) CinemaniaHDD.Net
    Encoded date                : UTC 2022-03-29 07:15:03
    Writing application         : mkvmerge v56.1.0 ('My Friend') 64-bit
    Writing library             : libebml v1.4.2 + libmatroska v1.6.4
    Attachments                 : CINEMANIAHD.png

    Video
    ID                          : 1
    Format                      : HEVC
    Format/Info                 : High Efficiency Video Coding
    Format profile              : Main 10@L5@High
    HDR format                  : SMPTE ST 2086, HDR10 compatible
    Codec ID                    : V_MPEGH/ISO/HEVC
    Duration                    : 2 h 6 min
    Bit rate                    : 14.2 Mb/s
    Width                       : 3 840 pixels
    Height                      : 1 606 pixels
    Display aspect ratio        : 2.40:1
    Frame rate mode             : Constant
    Frame rate                  : 23.976 (24000/1001) FPS
    Color space                 : YUV
    Chroma subsampling          : 4:2:0 (Type 2)
    Bit depth                   : 10 bits
    Bits/(Pixel*Frame)          : 0.096
    Stream size                 : 12.6 GiB (91%)
    Title                       : Web 2160p HDR [CinemaniaHDD]
    Language                    : English
    Default                     : Yes
    Forced                      : No
    Color range                 : Limited
    Color primaries             : BT.2020
    Transfer characteristics    : PQ
    Matrix coefficients         : BT.2020 non-constant
    Mastering display color pri : BT.2020
    Mastering display luminance : min: 0.0050 cd/m2, max: 1000 cd/m2
    Maximum Content Light Level : 1187 cd/m2
    Maximum Frame-Average Light : 842 cd/m2

    Audio #1
    ID                          : 2
    Format                      : AC-3
    Format/Info                 : Audio Coding 3
    Commercial name             : Dolby Digital
    Codec ID                    : A_AC3
    Duration                    : 2 h 6 min
    Bit rate mode               : Constant
    Bit rate                    : 640 kb/s
    Channel(s)                  : 6 channels
    Channel layout              : L R C LFE Ls Rs
    Sampling rate               : 48.0 kHz
    Frame rate                  : 31.250 FPS (1536 SPF)
    Compression mode            : Lossy
    Stream size                 : 581 MiB (4%)
    Title                       : Español Latino [CinemaniaHDD]
    Language                    : Spanish
    Service kind                : Complete Main
    Default                     : Yes
    Forced                      : Yes

    Audio #2
    ID                          : 3
    Format                      : E-AC-3 JOC
    Format/Info                 : Enhanced AC-3 with Joint Object Coding
    Commercial name             : Dolby Digital Plus with Dolby Atmos
    Codec ID                    : A_EAC3
    Duration                    : 2 h 6 min
    Bit rate mode               : Constant
    Bit rate                    : 768 kb/s
    Channel(s)                  : 6 channels
    Channel layout              : L R C LFE Ls Rs
    Sampling rate               : 48.0 kHz
    Frame rate                  : 31.250 FPS (1536 SPF)
    Compression mode            : Lossy
    Stream size                 : 697 MiB (5%)
    Title                       : Ingles [CinemaniaHDD]
    Language                    : English
    Service kind                : Complete Main
    Default                     : No
    Forced                      : No
    Complexity index            : 16
    Number of dynamic objects   : 15
    Bed channel count           : 1 channel
    Bed channel configuration   : LFE

    Text #1
    ID                          : 4
    Format                      : UTF-8
    Codec ID                    : S_TEXT/UTF8
    Codec ID/Info               : UTF-8 Plain Text
    Duration                    : 1 h 56 min
    Bit rate                    : 1 b/s
    Count of elements           : 47
    Stream size                 : 1.34 KiB (0%)
    Title                       : Forzados-SRT [CinemaniaHDD]
    Language                    : Spanish
    Default                     : Yes
    Forced                      : Yes

    Text #2
    ID                          : 5
    Format                      : UTF-8
    Codec ID                    : S_TEXT/UTF8
    Codec ID/Info               : UTF-8 Plain Text
    Duration                    : 1 h 58 min
    Bit rate                    : 70 b/s
    Count of elements           : 1786
    Stream size                 : 61.1 KiB (0%)
    Title                       : Español-SRT [CinemaniaHDD]
    Language                    : Spanish
    Default                     : No
    Forced                      : No

    Text #3
    ID                          : 6
    Format                      : UTF-8
    Codec ID                    : S_TEXT/UTF8
    Codec ID/Info               : UTF-8 Plain Text
    Duration                    : 1 h 58 min
    Bit rate                    : 67 b/s
    Count of elements           : 1795
    Stream size                 : 58.6 KiB (0%)
    Title                       : Ingles-SRT [CinemaniaHDD]
    Language                    : English
    Default                     : No
    Forced                      : No

    Menu
    00:00:00.000                : Chapter 1
    00:07:30.283                : Chapter 2
    00:16:05.965                : Chapter 3
    00:22:34.312                : Chapter 4
    00:31:54.080                : Chapter 5
    00:40:54.496                : Chapter 6
    00:48:09.014                : Chapter 7
    00:56:12.664                : Chapter 8
    01:04:31.705                : Chapter 9
    01:12:06.576                : Chapter 10
    01:20:36.419                : Chapter 11
    01:27:42.595                : Chapter 12
    01:35:28.895                : Chapter 13
    01:43:53.775                : Chapter 14
    01:51:51.378                : Chapter 15
    01:58:05.585                : Chapter 16

  • Peso: 13.9 GiB

Sinopsis

Descargar Muerte en el Nilo (2022) WEB-DL 4K UHD HDR Latino. Vuelven las pesquisas del célebre detective Hércules Poirot. Esta vez, durante un viaje en crucero por el Nilo, Poirot deberá investigar el misterioso asesinato de una joven heredera sin explicación aparente. Esta secuela de Asesinato en el Orient Express (2017) es la adaptación de la novela Muerte en el Nilo (1937) de Agatha Christie.

Español Latino AC3 5.1 BD – Ingles EAC3 JOC 5.1 Web

Ficha técnica

Video trailer de la película

Enlaces de descarga

Rip de Bluray

Descargar Muerte en el Nilo (2022) WEB-DL 4K UHD HDR Latino




Aportes de DPeliculasHDmega la pass es:dpeliculashdmega.org Aportes de CinemaniaHD la pass es:cinemaniahdd.com
Guardado en : 4K HDR , 4K UHD , Crimen , Drama , Misterio

Películas relacionadas

descargar Muerte en el Nilo (2022) WEB-DL 4K UHD HDR Latino WEBDL 1080p gratis, Muerte en el Nilo (2022) WEB-DL 4K UHD HDR Latino WEBDL mega 1 link, Muerte en el Nilo (2022) WEB-DL 4K UHD HDR Latino WEBDL pelicula completa, descargar Muerte en el Nilo (2022) WEB-DL 4K UHD HDR Latino WEBDL gratis en mega.

Muerte en el Nilo (2022) WEB-DL 4K UHD HDR Latino pelicula full hd, Muerte en el Nilo (2022) WEB-DL 4K UHD HDR Latino mega latino, Muerte en el Nilo (2022) WEB-DL 4K UHD HDR Latino 4k latino, Muerte en el Nilo (2022) WEB-DL 4K UHD HDR Latino pelicula completa, Muerte en el Nilo (2022) WEB-DL 4K UHD HDR Latino descargar gratis, descargar Muerte en el Nilo (2022) WEB-DL 4K UHD HDR Latino pelicula latino, Muerte en el Nilo (2022) WEB-DL 4K UHD HDR Latino 1 link mega, Muerte en el Nilo (2022) WEB-DL 4K UHD HDR Latino 1 link google drive, Muerte en el Nilo (2022) WEB-DL 4K UHD HDR Latino hd 1080p latino.
Comentarios 0